<svg xmlns="http://www.w3.org/2000/svg">
<defs>
<font
       id="EmbeddedFont_1"
       horiz-adv-x="2048"
       horiz-origin-x="0"
       horiz-origin-y="0"
       vert-origin-x="512"
       vert-origin-y="768"
       vert-adv-y="1024">
      <font-face
         font-family="Noto Serif CJK JP embedded"
         units-per-em="2048"
         font-weight="normal"
         font-style="normal"
         ascent="2362"
         descent="584"
         id="font-face1444" />
      <missing-glyph
         horiz-adv-x="2048"
         d="M 0,0 L 2047,0 2047,2047 0,2047 0,0 Z"
         id="missing-glyph1446" />
      <glyph
         unicode="老"
         horiz-adv-x="1931"
         d="M 1694,1649 C 1630,1552 1554,1456 1468,1358 1403,1421 1298,1501 1298,1501 L 1200,1380 936,1380 936,1647 C 981,1655 999,1671 1004,1700 L 803,1718 803,1380 264,1380 281,1319 803,1319 803,977 92,977 111,915 1016,915 C 948,858 879,803 807,750 L 643,768 643,633 C 457,506 258,391 55,297 L 74,264 C 272,340 463,432 643,537 L 643,41 C 643,-86 696,-115 913,-115 L 1276,-115 C 1767,-115 1847,-94 1847,-25 1847,4 1831,18 1778,33 L 1774,303 1747,303 C 1718,174 1694,80 1675,43 1663,23 1653,14 1614,12 1567,8 1444,6 1282,6 L 922,6 C 791,6 776,18 776,63 L 776,307 C 1087,381 1413,508 1614,612 1667,598 1704,602 1718,619 L 1542,750 C 1384,625 1063,455 776,352 L 776,616 C 928,711 1069,811 1198,915 L 1901,915 C 1929,915 1950,926 1956,948 1884,1014 1772,1100 1772,1100 L 1673,977 1272,977 C 1481,1153 1657,1337 1790,1511 1841,1493 1862,1497 1880,1520 L 1694,1649 Z M 936,1319 L 1421,1319 1438,1321 C 1333,1204 1217,1090 1087,977 L 936,977 936,1319 Z"
         id="glyph1448" />
      <glyph
         unicode="秋"
         horiz-adv-x="1957"
         d="M 1055,1282 L 1020,1284 C 1018,1122 940,956 868,887 829,852 809,805 834,768 866,725 942,748 983,797 1047,870 1104,1047 1055,1282 Z M 1409,1628 C 1458,1634 1477,1657 1479,1686 L 1278,1706 C 1278,864 1317,272 655,-127 L 682,-164 C 1233,117 1362,516 1395,1028 1444,487 1563,88 1858,-156 1878,-80 1923,-45 1991,-35 L 1997,-12 C 1735,164 1589,408 1507,737 1643,840 1788,991 1907,1151 1950,1143 1976,1157 1989,1178 L 1798,1280 C 1712,1100 1595,911 1495,788 1444,1016 1421,1282 1409,1593 L 1409,1628 Z M 764,1233 L 680,1120 578,1120 578,1495 C 666,1520 745,1548 809,1575 856,1559 893,1563 909,1579 L 739,1714 C 602,1616 322,1489 86,1423 L 96,1389 C 213,1405 334,1430 446,1458 L 446,1120 90,1120 107,1059 422,1059 C 352,772 227,479 55,260 L 84,233 C 233,377 354,545 446,731 L 446,-156 467,-156 C 532,-156 578,-123 578,-111 L 578,834 C 649,750 721,637 741,547 868,453 975,709 578,887 L 578,1059 868,1059 C 897,1059 918,1069 922,1092 862,1153 764,1233 764,1233 Z"
         id="glyph1450" />
      <glyph
         unicode="替"
         horiz-adv-x="1906"
         d="M 107,1204 L 123,1145 475,1145 C 430,946 324,786 78,659 L 104,625 C 369,733 502,872 569,1042 666,979 778,875 815,784 954,715 1016,987 582,1075 L 602,1145 954,1145 C 981,1145 1001,1155 1006,1176 942,1235 842,1315 842,1315 L 754,1204 614,1204 C 627,1270 633,1337 637,1409 L 940,1409 C 969,1409 987,1419 993,1440 930,1499 834,1577 834,1577 L 748,1468 639,1468 645,1640 C 688,1647 707,1667 711,1694 L 512,1712 510,1468 127,1468 143,1409 508,1409 C 504,1337 498,1268 487,1204 L 107,1204 Z M 1458,289 L 1458,31 600,31 600,289 1458,289 Z M 1458,348 L 600,348 600,602 1458,602 1458,348 Z M 467,662 L 467,-156 487,-156 C 545,-156 600,-125 600,-111 L 600,-31 1458,-31 1458,-143 1479,-143 C 1522,-143 1589,-113 1591,-98 L 1591,575 C 1632,584 1665,600 1679,616 L 1511,743 1438,662 612,662 467,727 467,662 Z M 1014,1204 L 1028,1145 1303,1145 C 1255,977 1153,842 934,735 L 961,700 C 1245,809 1372,952 1430,1135 1509,926 1659,770 1853,672 1872,733 1909,770 1958,780 L 1960,799 C 1759,862 1575,981 1475,1145 L 1901,1145 C 1927,1145 1948,1155 1954,1176 1888,1237 1784,1319 1784,1319 L 1692,1204 1448,1204 C 1462,1268 1468,1337 1475,1409 L 1866,1409 C 1894,1409 1913,1419 1919,1440 1855,1501 1753,1581 1753,1581 L 1665,1468 1477,1468 1483,1640 C 1526,1647 1544,1669 1548,1694 L 1346,1712 1343,1468 1030,1468 1047,1409 1341,1409 C 1337,1335 1331,1268 1317,1204 L 1014,1204 Z"
         id="glyph1452" />
      <glyph
         unicode="日"
         horiz-adv-x="1348"
         d="M 1505,758 L 1505,98 549,98 549,758 1505,758 Z M 1505,819 L 549,819 549,1454 1505,1454 1505,819 Z M 414,1513 L 414,-143 438,-143 C 500,-143 549,-109 549,-88 L 549,39 1505,39 1505,-133 1526,-133 C 1575,-133 1643,-96 1645,-82 L 1645,1427 C 1686,1436 1718,1452 1733,1468 L 1563,1602 1485,1513 563,1513 414,1583 414,1513 Z"
         id="glyph1454" />
      <glyph
         unicode="敬"
         horiz-adv-x="2008"
         d="M 313,1217 C 268,1012 168,762 45,621 L 74,600 C 139,651 201,717 254,791 L 254,164 272,164 C 332,164 369,195 369,203 L 369,330 565,330 565,225 584,225 C 621,225 680,254 682,266 L 682,725 C 713,731 741,748 754,760 L 610,866 549,799 393,799 291,844 C 326,893 356,946 383,997 L 875,997 C 864,412 838,92 778,33 760,12 743,8 709,8 668,8 555,16 481,25 L 479,-12 C 547,-23 612,-41 639,-61 666,-82 672,-119 672,-160 752,-160 825,-135 877,-78 956,16 991,330 1004,983 1047,987 1071,997 1085,1014 L 930,1143 854,1057 412,1057 451,1147 C 502,1147 516,1157 522,1178 L 387,1202 C 440,1204 479,1225 479,1237 L 479,1395 721,1395 721,1206 750,1206 C 815,1208 850,1235 850,1245 L 850,1395 1139,1395 C 1167,1395 1184,1405 1190,1427 1131,1489 1038,1567 1038,1567 L 956,1454 850,1454 850,1640 C 895,1647 911,1669 913,1696 L 721,1712 721,1454 479,1454 479,1640 C 522,1647 541,1669 543,1696 L 350,1712 350,1454 88,1454 102,1395 350,1395 350,1210 313,1217 Z M 369,739 L 565,739 565,389 369,389 369,739 Z M 1309,1712 C 1268,1335 1161,965 1030,711 L 1059,692 C 1135,782 1200,891 1260,1012 1294,786 1350,578 1432,389 1319,186 1153,10 915,-139 L 934,-166 C 1182,-49 1360,98 1491,272 1583,102 1706,-43 1868,-160 1888,-98 1935,-68 1995,-59 L 2001,-39 C 1815,66 1671,207 1561,377 1702,608 1769,887 1804,1208 L 1927,1208 C 1956,1208 1974,1219 1980,1241 1915,1303 1804,1391 1804,1391 L 1708,1270 1362,1270 C 1399,1380 1432,1497 1456,1616 1501,1618 1524,1638 1530,1665 L 1309,1712 Z M 1489,502 C 1397,676 1335,877 1294,1090 L 1341,1208 1655,1208 C 1632,946 1583,711 1489,502 Z"
         id="glyph1456" />
      <glyph
         unicode="振"
         horiz-adv-x="1982"
         d="M 1020,1223 L 1036,1161 1802,1161 C 1831,1161 1847,1171 1853,1194 1790,1255 1688,1337 1688,1337 L 1595,1223 1020,1223 Z M 1804,766 C 1753,680 1638,532 1542,426 1475,547 1425,682 1389,825 L 1919,825 C 1948,825 1966,836 1972,858 1905,920 1796,1008 1796,1008 L 1704,887 915,887 918,1026 918,1497 1905,1497 C 1933,1497 1952,1507 1958,1530 1890,1591 1782,1679 1782,1679 L 1688,1559 942,1559 786,1624 786,1024 C 786,631 762,213 543,-123 L 575,-145 C 838,127 899,500 913,825 L 1069,825 1069,70 C 965,43 879,23 823,12 L 930,-150 C 948,-141 963,-127 971,-98 1223,8 1409,96 1536,158 L 1528,190 1196,102 1196,825 1348,825 C 1423,363 1571,31 1882,-158 1901,-86 1948,-41 1999,-31 L 2003,-10 C 1817,66 1669,211 1561,393 1686,467 1825,569 1894,633 1935,619 1968,635 1976,653 L 1804,766 Z M 51,647 L 125,477 C 145,483 162,502 168,528 L 371,631 371,49 C 371,18 360,8 326,8 291,8 113,20 113,20 L 113,-12 C 193,-23 236,-37 264,-59 289,-82 299,-119 305,-160 481,-139 500,-74 500,37 L 500,698 760,840 750,868 500,784 500,1188 727,1188 C 756,1188 772,1198 778,1221 723,1282 629,1364 629,1364 L 545,1247 500,1247 500,1638 C 551,1645 571,1665 575,1694 L 371,1716 371,1247 84,1247 100,1188 371,1188 371,743 C 231,696 115,662 51,647 Z"
         id="glyph1458" />
      <glyph
         unicode="分"
         horiz-adv-x="1932"
         d="M 719,1714 C 616,1413 385,1047 80,823 L 100,797 C 461,991 717,1325 848,1604 899,1599 918,1610 926,1634 L 719,1714 Z M 1245,1720 L 1210,1702 C 1325,1339 1583,1028 1862,844 1886,909 1931,946 1987,950 L 1993,973 C 1700,1116 1374,1403 1245,1720 Z M 367,909 L 385,850 815,850 C 797,547 715,180 162,-125 L 188,-158 C 821,127 928,512 963,850 L 1462,850 C 1438,442 1389,109 1319,47 1296,27 1276,23 1233,23 1184,23 1001,39 895,49 L 893,12 C 987,0 1094,-25 1131,-47 1161,-68 1174,-107 1171,-147 1274,-147 1356,-121 1413,-66 1513,27 1573,381 1597,834 1640,838 1667,850 1681,864 L 1524,995 1444,909 367,909 Z"
         id="glyph1460" />
      <glyph
         unicode="休"
         horiz-adv-x="1982"
         d="M 1188,1688 L 1188,1198 625,1198 641,1139 1102,1139 C 1001,774 813,414 547,158 L 575,131 C 854,342 1059,621 1188,942 L 1188,-152 1214,-152 C 1266,-152 1321,-119 1321,-98 L 1321,1110 C 1419,727 1622,371 1882,162 1894,221 1935,266 1993,287 L 1999,309 C 1729,479 1470,788 1362,1139 L 1901,1139 C 1929,1139 1948,1149 1954,1169 1884,1235 1774,1321 1774,1321 L 1675,1198 1321,1198 1321,1608 C 1374,1616 1391,1636 1395,1665 L 1188,1688 Z M 537,1716 C 432,1319 244,924 61,674 L 90,653 C 193,752 291,872 379,1012 L 379,-156 403,-156 C 457,-156 510,-123 512,-113 L 512,1071 C 549,1077 569,1090 578,1108 L 463,1151 C 543,1292 612,1446 672,1608 717,1606 743,1624 752,1649 L 537,1716 Z"
         id="glyph1462" />
      <glyph
         unicode="の"
         horiz-adv-x="1652"
         d="M 1008,1350 L 1081,1354 C 1419,1354 1690,1120 1690,756 1690,385 1448,127 946,39 L 954,-8 C 1624,35 1837,383 1837,723 1837,1147 1511,1423 1090,1423 870,1423 659,1354 492,1204 317,1049 219,836 219,629 219,377 363,160 500,160 709,160 946,557 1032,803 1073,920 1096,1034 1096,1133 1096,1212 1055,1284 1008,1350 Z M 932,1337 C 967,1276 989,1223 989,1149 989,1057 954,932 915,834 831,639 643,315 508,315 424,315 334,465 334,662 334,842 414,1008 545,1135 649,1237 788,1309 932,1337 Z"
         id="glyph1464" />
    </font>
    <font
       id="EmbeddedFont_2"
       horiz-adv-x="2048"
       horiz-origin-x="0"
       horiz-origin-y="0"
       vert-origin-x="512"
       vert-origin-y="768"
       vert-adv-y="1024">
      <font-face
         font-family="Noto Serif CJK JP Black embedded"
         units-per-em="2048"
         font-weight="normal"
         font-style="normal"
         ascent="2362"
         descent="584"
         id="font-face1469" />
      <missing-glyph
         horiz-adv-x="2048"
         d="M 0,0 L 2047,0 2047,2047 0,2047 0,0 Z"
         id="missing-glyph1471" />
      <glyph
         unicode="金"
         horiz-adv-x="2033"
         d="M 399,520 L 381,512 C 424,389 455,240 444,92 678,-152 1004,311 399,520 Z M 1352,535 C 1315,356 1266,150 1231,27 L 1253,12 C 1382,98 1528,227 1649,358 1696,356 1724,373 1733,399 L 1352,535 Z M 1126,1565 C 1239,1214 1501,989 1790,831 1810,952 1896,1096 2030,1135 L 2032,1167 C 1743,1229 1346,1337 1157,1589 1233,1597 1262,1610 1270,1640 L 825,1757 C 750,1458 383,1012 33,770 L 45,750 C 205,809 371,895 526,997 L 541,946 840,946 840,653 195,653 211,596 840,596 840,-59 90,-59 107,-117 1911,-117 C 1942,-117 1966,-107 1972,-84 1862,12 1675,154 1675,154 L 1511,-59 1149,-59 1149,596 1812,596 C 1843,596 1866,606 1872,629 1772,717 1602,848 1602,848 L 1454,653 1149,653 1149,946 1450,946 C 1479,946 1501,956 1507,979 1413,1061 1260,1178 1260,1178 L 1122,1004 537,1004 C 782,1165 999,1364 1126,1565 Z"
         id="glyph1473" />
      <glyph
         unicode="火"
         horiz-adv-x="2033"
         d="M 457,1417 C 467,1202 358,1020 258,954 180,899 141,811 188,717 246,619 383,594 475,684 604,803 666,1055 475,1419 L 457,1417 Z M 1585,1399 C 1522,1241 1378,975 1249,784 1163,1004 1122,1276 1106,1614 L 1106,1645 C 1157,1653 1178,1671 1184,1704 L 774,1741 C 774,903 834,309 41,-166 L 57,-193 C 897,90 1055,532 1092,1122 1141,465 1284,31 1755,-195 1786,-37 1878,72 2021,102 L 2023,125 C 1626,246 1397,440 1264,750 1489,862 1708,1022 1860,1145 1911,1137 1931,1151 1939,1171 L 1585,1399 Z"
         id="glyph1475" />
      <glyph
         unicode="水"
         horiz-adv-x="2008"
         d="M 1643,1417 C 1583,1284 1462,1065 1346,895 1270,1036 1208,1208 1174,1417 L 1174,1657 C 1227,1665 1241,1683 1245,1712 L 870,1749 870,1104 655,1286 512,1137 86,1137 104,1079 528,1079 C 471,690 322,285 33,27 L 49,6 C 522,233 735,629 829,1036 848,1038 860,1040 870,1042 L 870,170 C 870,145 858,133 823,133 770,133 512,150 512,150 L 512,123 C 637,100 684,68 725,23 766,-25 780,-92 788,-190 1126,-162 1174,-53 1174,150 L 1174,1282 C 1255,608 1430,283 1737,10 1778,147 1868,254 1991,279 L 2001,301 C 1776,403 1544,559 1376,838 1571,940 1761,1073 1892,1176 1944,1169 1964,1182 1974,1202 L 1643,1417 Z"
         id="glyph1477" />
      <glyph
         unicode="木"
         horiz-adv-x="2008"
         d="M 1686,1475 L 1520,1264 1171,1264 1165,1262 1165,1653 C 1223,1661 1237,1683 1241,1712 L 858,1749 858,1264 80,1264 96,1206 725,1206 C 621,788 383,326 49,37 L 68,18 C 412,193 674,430 858,715 L 858,-195 915,-195 C 1032,-195 1165,-119 1165,-90 L 1165,1171 C 1260,639 1425,274 1731,39 1778,184 1876,283 1993,305 L 2001,330 C 1667,477 1350,782 1192,1206 L 1925,1206 C 1956,1206 1980,1217 1987,1239 1874,1333 1686,1475 1686,1475 Z"
         id="glyph1479" />
      <glyph
         unicode="月"
         horiz-adv-x="1678"
         d="M 1343,1497 L 1343,1100 758,1100 758,1497 1343,1497 Z M 457,1554 L 457,911 C 457,506 418,121 84,-184 L 98,-199 C 541,-10 688,276 735,571 L 1343,571 1343,178 C 1343,150 1333,133 1298,133 1245,133 985,147 985,147 L 985,123 C 1110,98 1159,66 1200,20 1239,-25 1253,-96 1262,-197 1604,-166 1651,-55 1651,143 L 1651,1450 C 1694,1458 1718,1477 1731,1493 L 1458,1708 1323,1554 803,1554 457,1669 457,1554 Z M 1343,1042 L 1343,629 743,629 C 756,725 758,819 758,913 L 758,1042 1343,1042 Z"
         id="glyph1481" />
      <glyph
         unicode="日"
         horiz-adv-x="1474"
         d="M 1405,762 L 1405,86 672,86 672,762 1405,762 Z M 1405,819 L 672,819 672,1466 1405,1466 1405,819 Z M 358,1524 L 358,-184 410,-184 C 545,-184 672,-109 672,-70 L 672,29 1405,29 1405,-164 1456,-164 C 1575,-164 1724,-92 1729,-70 L 1729,1417 C 1769,1427 1792,1444 1806,1462 L 1530,1683 1384,1524 690,1524 358,1655 358,1524 Z"
         id="glyph1483" />
      <glyph
         unicode="土"
         horiz-adv-x="1982"
         d="M 182,995 L 199,938 852,938 852,-27 51,-27 68,-84 1939,-84 C 1970,-84 1995,-74 2001,-51 1884,47 1692,193 1692,193 L 1520,-27 1169,-27 1169,938 1825,938 C 1855,938 1880,948 1884,971 1774,1067 1587,1206 1587,1206 L 1421,995 1169,995 1169,1655 C 1227,1663 1241,1683 1245,1716 L 852,1751 852,995 182,995 Z"
         id="glyph1485" />
      <glyph
         unicode="©"
         horiz-adv-x="1626"
         d="M 868,-41 C 1292,-41 1663,274 1663,766 1663,1260 1292,1571 868,1571 440,1571 70,1260 70,766 70,274 440,-41 868,-41 Z M 868,37 C 487,37 170,322 170,766 170,1210 487,1493 868,1493 1249,1493 1567,1208 1567,766 1567,326 1249,37 868,37 Z M 909,285 C 1026,285 1118,315 1194,360 L 1200,598 1116,598 1055,363 C 1024,354 993,350 963,350 799,350 668,494 668,768 668,1042 797,1190 965,1190 993,1190 1020,1188 1047,1180 L 1110,940 1190,940 1186,1184 C 1106,1227 1032,1253 920,1253 659,1253 434,1083 434,766 434,455 645,285 909,285 Z"
         id="glyph1487" />
      <glyph
         unicode="y"
         horiz-adv-x="1271"
         d="M 797,1057 L 999,1036 862,610 731,250 446,1038 610,1057 610,1118 -14,1118 -14,1057 90,1047 582,-127 C 522,-264 467,-356 395,-420 L 363,-377 C 311,-311 252,-262 170,-262 90,-262 10,-303 -6,-395 0,-494 107,-555 221,-555 395,-555 530,-442 666,-84 L 1083,1038 1219,1057 1219,1118 797,1118 797,1057 Z"
         id="glyph1489" />
      <glyph
         unicode="t"
         horiz-adv-x="814"
         d="M 512,-35 C 670,-35 772,25 834,135 L 801,168 C 745,123 711,102 659,102 578,102 526,150 526,260 L 526,1034 778,1034 778,1118 526,1118 528,1450 317,1450 211,1118 29,1100 29,1034 195,1034 195,510 C 195,426 193,367 193,285 193,59 303,-35 512,-35 Z"
         id="glyph1491" />
      <glyph
         unicode="s"
         horiz-adv-x="941"
         d="M 487,-35 C 799,-35 987,104 987,344 987,512 893,625 678,690 L 557,727 C 397,774 356,836 356,909 356,1012 438,1075 565,1075 625,1075 668,1065 711,1044 L 788,803 905,803 920,1061 C 799,1120 694,1153 557,1153 256,1153 88,997 88,782 88,608 197,502 381,446 L 500,408 C 664,360 702,299 702,213 702,100 616,45 461,45 395,45 344,55 291,76 L 229,346 98,346 82,68 C 203,0 328,-35 487,-35 Z"
         id="glyph1493" />
      <glyph
         unicode="p"
         horiz-adv-x="1296"
         d="M 840,-35 C 1112,-35 1339,193 1339,565 1339,944 1141,1153 889,1153 754,1153 633,1106 539,999 L 522,1131 496,1151 55,1022 55,973 207,956 C 211,858 213,788 213,655 L 213,-14 209,-457 72,-471 72,-530 702,-530 702,-471 545,-453 541,-12 541,109 C 625,10 725,-35 840,-35 Z M 545,938 C 612,999 666,1012 727,1012 889,1012 983,897 983,563 983,221 875,111 715,111 647,111 596,121 545,162 L 545,938 Z"
         id="glyph1495" />
      <glyph
         unicode="o"
         horiz-adv-x="1195"
         d="M 651,-35 C 1001,-35 1233,199 1233,565 1233,932 975,1153 651,1153 330,1153 72,928 72,565 72,205 299,-35 651,-35 Z M 651,37 C 506,37 424,205 424,561 424,920 506,1081 651,1081 799,1081 879,920 879,561 879,205 799,37 651,37 Z"
         id="glyph1497" />
      <glyph
         unicode="k"
         horiz-adv-x="1347"
         d="M 780,1057 L 985,1032 729,784 545,606 545,1343 553,1673 522,1692 63,1604 63,1548 213,1536 213,487 209,76 72,63 72,0 678,0 678,63 549,76 C 547,193 545,383 545,504 L 545,518 635,602 926,0 1374,0 1374,63 1241,76 866,811 1114,1036 1313,1057 1313,1118 780,1118 780,1057 Z"
         id="glyph1499" />
      <glyph
         unicode="h"
         horiz-adv-x="1347"
         d="M 913,0 L 1380,0 1380,63 1257,74 1253,487 1253,754 C 1253,1032 1120,1153 920,1153 768,1153 659,1092 539,948 L 539,1343 545,1673 518,1692 63,1604 63,1548 213,1536 213,487 209,76 74,63 74,0 666,0 666,63 549,74 C 547,195 545,373 545,487 L 545,887 C 627,961 707,999 772,999 862,999 922,942 922,784 L 922,487 C 922,369 920,195 918,76 L 786,63 786,0 913,0 Z"
         id="glyph1501" />
      <glyph
         unicode=":"
         horiz-adv-x="408"
         d="M 348,-35 C 455,-35 537,49 537,152 537,256 455,342 348,342 242,342 160,256 160,152 160,49 242,-35 348,-35 Z M 348,754 C 455,754 537,838 537,940 537,1044 455,1131 348,1131 242,1131 160,1044 160,940 160,838 242,754 348,754 Z"
         id="glyph1503" />
      <glyph
         unicode="9"
         horiz-adv-x="1119"
         d="M 219,-41 C 788,63 1171,422 1171,911 1171,1321 971,1565 612,1565 326,1565 80,1391 80,1047 80,758 272,594 539,594 655,594 750,627 815,676 754,340 565,141 207,18 L 219,-41 Z M 825,739 C 778,705 731,690 668,690 506,690 406,840 406,1092 406,1374 504,1495 621,1495 748,1495 838,1362 838,956 838,879 834,807 825,739 Z"
         id="glyph1505" />
      <glyph
         unicode="1"
         horiz-adv-x="839"
         d="M 98,0 L 889,-6 889,55 676,102 C 672,231 670,360 670,485 L 670,1200 678,1534 647,1554 94,1430 94,1356 334,1384 334,485 330,100 98,63 98,0 Z"
         id="glyph1507" />
      <glyph
         unicode="0"
         horiz-adv-x="1119"
         d="M 627,-35 C 909,-35 1167,209 1167,768 1167,1323 909,1565 627,1565 342,1565 88,1323 88,768 88,209 342,-35 627,-35 Z M 627,37 C 504,37 401,193 401,768 401,1339 504,1493 627,1493 748,1493 854,1337 854,768 854,195 748,37 627,37 Z"
         id="glyph1509" />
      <glyph
         unicode="/"
         horiz-adv-x="788"
         d="M 53,-371 L 197,-371 817,1647 676,1647 53,-371 Z"
         id="glyph1511" />
      <glyph
         unicode="."
         horiz-adv-x="408"
         d="M 348,-35 C 455,-35 537,49 537,152 537,256 455,342 348,342 242,342 160,256 160,152 160,49 242,-35 348,-35 Z"
         id="glyph1513" />
    </font>
    <font
       id="EmbeddedFont_3"
       horiz-adv-x="2048"
       horiz-origin-x="0"
       horiz-origin-y="0"
       vert-origin-x="512"
       vert-origin-y="768"
       vert-adv-y="1024">
      <font-face
         font-family="Noto Serif CJK JP Black embedded"
         units-per-em="2048"
         font-weight="bold"
         font-style="normal"
         ascent="2362"
         descent="584"
         id="font-face1518" />
      <missing-glyph
         horiz-adv-x="2048"
         d="M 0,0 L 2047,0 2047,2047 0,2047 0,0 Z"
         id="missing-glyph1520" />
      <glyph
         unicode="年"
         horiz-adv-x="1982"
         d="M 537,1776 C 428,1425 229,1071 53,858 L 72,842 C 186,901 295,969 397,1053 L 397,377 53,377 70,319 1026,319 1026,-193 1087,-193 C 1255,-193 1350,-129 1352,-111 L 1352,319 1937,319 C 1968,319 1993,330 1999,352 1886,444 1704,580 1704,580 L 1542,377 1352,377 1352,887 1837,887 C 1868,887 1890,897 1896,920 1792,1006 1620,1133 1620,1133 L 1468,944 1352,944 1352,1358 1909,1358 C 1939,1358 1964,1368 1968,1391 1853,1487 1675,1616 1675,1616 L 1513,1415 741,1415 C 780,1468 817,1526 854,1587 903,1583 932,1599 942,1626 L 537,1776 Z M 1026,377 L 713,377 713,887 1026,887 1026,377 Z M 1026,944 L 741,944 412,1065 C 514,1147 608,1245 698,1358 L 1026,1358 1026,944 Z"
         id="glyph1522" />
      <glyph
         unicode="9"
         horiz-adv-x="1119"
         d="M 219,-41 C 788,63 1171,422 1171,911 1171,1321 971,1565 612,1565 326,1565 80,1391 80,1047 80,758 272,594 539,594 655,594 750,627 815,676 754,340 565,141 207,18 L 219,-41 Z M 825,739 C 778,705 731,690 668,690 506,690 406,840 406,1092 406,1374 504,1495 621,1495 748,1495 838,1362 838,956 838,879 834,807 825,739 Z"
         id="glyph1524" />
      <glyph
         unicode="8"
         horiz-adv-x="1067"
         d="M 596,-35 C 956,-35 1149,139 1149,403 1149,598 1036,743 791,860 1012,954 1098,1075 1098,1210 1098,1399 954,1565 639,1565 352,1565 139,1401 139,1147 139,956 242,803 446,700 225,623 109,498 109,322 109,117 264,-35 596,-35 Z M 743,883 C 469,1004 416,1133 416,1260 416,1403 518,1493 631,1493 762,1493 838,1380 838,1221 838,1085 811,983 743,883 Z M 496,678 C 772,557 852,432 852,281 852,127 772,37 623,37 469,37 379,139 379,360 379,494 412,584 496,678 Z"
         id="glyph1526" />
      <glyph
         unicode="7"
         horiz-adv-x="1017"
         d="M 299,0 L 571,0 1104,1372 1104,1530 123,1530 123,1276 971,1276 279,20 299,0 Z"
         id="glyph1528" />
      <glyph
         unicode="6"
         horiz-adv-x="1119"
         d="M 649,-35 C 977,-35 1174,184 1174,473 1174,745 1026,936 758,936 627,936 514,893 428,811 477,1159 705,1423 1092,1513 L 1081,1565 C 487,1511 82,1096 82,592 82,197 303,-35 649,-35 Z M 420,741 C 485,799 557,819 629,819 774,819 850,690 850,442 850,156 764,37 651,37 512,37 418,223 418,662 L 420,741 Z"
         id="glyph1530" />
      <glyph
         unicode="5"
         horiz-adv-x="1118"
         d="M 551,-35 C 901,-35 1155,133 1155,449 1155,754 942,913 596,913 498,913 408,903 319,877 L 348,1276 1102,1276 1102,1530 264,1530 215,809 276,768 C 348,791 416,803 494,803 684,803 805,670 805,434 805,174 680,37 492,37 446,37 416,41 383,53 L 354,256 C 342,377 293,422 209,422 152,422 98,391 76,330 92,107 264,-35 551,-35 Z"
         id="glyph1532" />
      <glyph
         unicode="4"
         horiz-adv-x="1169"
         d="M 682,-31 L 975,-31 975,346 1198,346 1198,559 975,559 975,1556 745,1556 68,518 68,346 682,346 682,-31 Z M 178,559 L 451,979 682,1337 682,559 178,559 Z"
         id="glyph1534" />
      <glyph
         unicode="3"
         horiz-adv-x="1093"
         d="M 580,-35 C 930,-35 1145,137 1145,387 1145,602 1030,758 707,807 991,864 1098,1014 1098,1202 1098,1413 944,1565 621,1565 371,1565 156,1460 150,1214 172,1176 213,1151 264,1151 336,1151 399,1186 418,1290 L 457,1489 C 481,1493 504,1495 524,1495 680,1495 772,1393 772,1190 772,946 651,836 471,836 L 401,836 401,756 481,756 C 690,756 801,627 801,385 801,156 684,37 473,37 444,37 420,39 397,45 L 365,246 C 346,383 295,424 213,424 160,424 107,395 84,330 102,100 268,-35 580,-35 Z"
         id="glyph1536" />
      <glyph
         unicode="2"
         horiz-adv-x="1067"
         d="M 121,0 L 1149,0 1149,252 287,252 C 383,336 477,414 543,467 924,766 1112,926 1112,1147 1112,1391 963,1565 639,1565 367,1565 129,1436 117,1192 139,1139 190,1104 250,1104 313,1104 381,1137 403,1276 L 444,1487 C 471,1493 498,1495 524,1495 682,1495 778,1376 778,1167 778,944 678,809 455,557 354,442 240,313 121,184 L 121,0 Z"
         id="glyph1538" />
      <glyph
         unicode="1"
         horiz-adv-x="839"
         d="M 98,0 L 889,-6 889,55 676,102 C 672,231 670,360 670,485 L 670,1200 678,1534 647,1554 94,1430 94,1356 334,1384 334,485 330,100 98,63 98,0 Z"
         id="glyph1540" />
      <glyph
         unicode="0"
         horiz-adv-x="1119"
         d="M 627,-35 C 909,-35 1167,209 1167,768 1167,1323 909,1565 627,1565 342,1565 88,1323 88,768 88,209 342,-35 627,-35 Z M 627,37 C 504,37 401,193 401,768 401,1339 504,1493 627,1493 748,1493 854,1337 854,768 854,195 748,37 627,37 Z"
         id="glyph1542" />
    </font>
    <g
       ooo:slide="id1"
       ooo:id-list="id3"
       id="g1547" />
    <g
       id="bullet-char-template-57356"
       transform="matrix(4.8828125e-4,0,0,-4.8828125e-4,0,0)">
      <path
         d="M 580,1141 1163,571 580,0 -4,571 Z"
         id="path1551" />
    </g>
    <g
       id="bullet-char-template-57354"
       transform="matrix(4.8828125e-4,0,0,-4.8828125e-4,0,0)">
      <path
         d="M 8,1128 H 1137 V 0 H 8 Z"
         id="path1554" />
    </g>
    <g
       id="bullet-char-template-10146"
       transform="matrix(4.8828125e-4,0,0,-4.8828125e-4,0,0)">
      <path
         d="M 174,0 602,739 174,1481 1456,739 Z M 1358,739 309,1346 659,739 Z"
         id="path1557" />
    </g>
    <g
       id="bullet-char-template-10132"
       transform="matrix(4.8828125e-4,0,0,-4.8828125e-4,0,0)">
      <path
         d="M 2015,739 1276,0 H 717 l 543,543 H 174 v 393 h 1086 l -543,545 h 557 z"
         id="path1560" />
    </g>
    <g
       id="bullet-char-template-10007"
       transform="matrix(4.8828125e-4,0,0,-4.8828125e-4,0,0)">
      <path
         d="m 0,-2 c -7,16 -16,29 -25,39 l 381,530 c -94,256 -141,385 -141,387 0,25 13,38 40,38 9,0 21,-2 34,-5 21,4 42,12 65,25 l 27,-13 111,-251 280,301 64,-25 24,25 c 21,-10 41,-24 62,-43 C 886,937 835,863 770,784 769,783 710,716 594,584 L 774,223 c 0,-27 -21,-55 -63,-84 l 16,-20 C 717,90 699,76 672,76 641,76 570,178 457,381 L 164,-76 c -22,-34 -53,-51 -92,-51 -42,0 -63,17 -64,51 -7,9 -10,24 -10,44 0,9 1,19 2,30 z"
         id="path1563" />
    </g>
    <g
       id="bullet-char-template-10004"
       transform="matrix(4.8828125e-4,0,0,-4.8828125e-4,0,0)">
      <path
         d="M 285,-33 C 182,-33 111,30 74,156 52,228 41,333 41,471 c 0,78 14,145 41,201 34,71 87,106 158,106 53,0 88,-31 106,-94 l 23,-176 c 8,-64 28,-97 59,-98 l 735,706 c 11,11 33,17 66,17 42,0 63,-15 63,-46 V 965 c 0,-36 -10,-64 -30,-84 L 442,47 C 390,-6 338,-33 285,-33 Z"
         id="path1566" />
    </g>
    <g
       id="bullet-char-template-9679"
       transform="matrix(4.8828125e-4,0,0,-4.8828125e-4,0,0)">
      <path
         d="M 813,0 C 632,0 489,54 383,161 276,268 223,411 223,592 c 0,181 53,324 160,431 106,107 249,161 430,161 179,0 323,-54 432,-161 108,-107 162,-251 162,-431 0,-180 -54,-324 -162,-431 C 1136,54 992,0 813,0 Z"
         id="path1569" />
    </g>
    <g
       id="bullet-char-template-8226"
       transform="matrix(4.8828125e-4,0,0,-4.8828125e-4,0,0)">
      <path
         d="m 346,457 c -73,0 -137,26 -191,78 -54,51 -81,114 -81,188 0,73 27,136 81,188 54,52 118,78 191,78 73,0 134,-26 185,-79 51,-51 77,-114 77,-187 0,-75 -25,-137 -76,-188 -50,-52 -112,-78 -186,-78 z"
         id="path1572" />
    </g>
    <g
       id="bullet-char-template-8211"
       transform="matrix(4.8828125e-4,0,0,-4.8828125e-4,0,0)">
      <path
         d="M -4,459 H 1135 V 606 H -4 Z"
         id="path1575" />
    </g>
    <g
       id="bullet-char-template-61548"
       transform="matrix(4.8828125e-4,0,0,-4.8828125e-4,0,0)">
      <path
         d="m 173,740 c 0,163 58,303 173,419 116,115 255,173 419,173 163,0 302,-58 418,-173 116,-116 174,-256 174,-419 0,-163 -58,-303 -174,-418 C 1067,206 928,148 765,148 601,148 462,206 346,322 231,437 173,577 173,740 Z"
         id="path1578" />
    </g>
    <clipPath
       id="clip_path_1"
       clipPathUnits="userSpaceOnUse">
      <path
         d="m 5801,10189 h 9773 v 9624 H 5801 Z"
         id="path1590" />
    </clipPath>
    <clipPath
       id="clip_path_2"
       clipPathUnits="userSpaceOnUse">
      <path
         d="m 8839,10490 h 2515 v 1092 H 8839 Z"
         id="path1931" />
    </clipPath>
    <clipPath
       id="clip_path_3"
       clipPathUnits="userSpaceOnUse">
      <path
         d="m 5801,10189 h 9773 v 9624 H 5801 Z"
         id="path1956" />
    </clipPath>
    <clipPath
       id="clip_path_4"
       clipPathUnits="userSpaceOnUse">
      <path
         d="m 5801,10189 h 9773 v 9624 H 5801 Z"
         id="path1987" />
    </clipPath>
    <clipPath
       id="clip_path_5"
       clipPathUnits="userSpaceOnUse">
      <path
         d="m 5801,10189 h 9773 v 9624 H 5801 Z"
         id="path1994" />
    </clipPath>
    <clipPath
       id="presentation_clip_path-3"
       clipPathUnits="userSpaceOnUse">
   <rect
   x="0"
   y="0"
   width="21000"
   height="29700"
   id="rect1673" />

  </clipPath>
    <clipPath
       id="presentation_clip_path_shrink-6"
       clipPathUnits="userSpaceOnUse">
   <rect
   x="21"
   y="29"
   width="20958"
   height="29641"
   id="rect1676" />

  </clipPath>
    <font
       id="EmbeddedFont_1-7"
       horiz-adv-x="2048"
       horiz-origin-x="0"
       horiz-origin-y="0"
       vert-origin-x="512"
       vert-origin-y="768"
       vert-adv-y="1024">
   <font-face
   font-family="Noto Serif CJK JP embedded"
   units-per-em="2048"
   font-weight="normal"
   font-style="normal"
   ascent="2362"
   descent="584"
   id="font-face1681" />

   <missing-glyph
   horiz-adv-x="2048"
   d="M 0,0 L 2047,0 2047,2047 0,2047 0,0 Z"
   id="missing-glyph1683" />

   <glyph
   unicode="替"
   horiz-adv-x="1906"
   d="M 107,1204 L 123,1145 475,1145 C 430,946 324,786 78,659 L 104,625 C 369,733 502,872 569,1042 666,979 778,875 815,784 954,715 1016,987 582,1075 L 602,1145 954,1145 C 981,1145 1001,1155 1006,1176 942,1235 842,1315 842,1315 L 754,1204 614,1204 C 627,1270 633,1337 637,1409 L 940,1409 C 969,1409 987,1419 993,1440 930,1499 834,1577 834,1577 L 748,1468 639,1468 645,1640 C 688,1647 707,1667 711,1694 L 512,1712 510,1468 127,1468 143,1409 508,1409 C 504,1337 498,1268 487,1204 L 107,1204 Z M 1458,289 L 1458,31 600,31 600,289 1458,289 Z M 1458,348 L 600,348 600,602 1458,602 1458,348 Z M 467,662 L 467,-156 487,-156 C 545,-156 600,-125 600,-111 L 600,-31 1458,-31 1458,-143 1479,-143 C 1522,-143 1589,-113 1591,-98 L 1591,575 C 1632,584 1665,600 1679,616 L 1511,743 1438,662 612,662 467,727 467,662 Z M 1014,1204 L 1028,1145 1303,1145 C 1255,977 1153,842 934,735 L 961,700 C 1245,809 1372,952 1430,1135 1509,926 1659,770 1853,672 1872,733 1909,770 1958,780 L 1960,799 C 1759,862 1575,981 1475,1145 L 1901,1145 C 1927,1145 1948,1155 1954,1176 1888,1237 1784,1319 1784,1319 L 1692,1204 1448,1204 C 1462,1268 1468,1337 1475,1409 L 1866,1409 C 1894,1409 1913,1419 1919,1440 1855,1501 1753,1581 1753,1581 L 1665,1468 1477,1468 1483,1640 C 1526,1647 1544,1669 1548,1694 L 1346,1712 1343,1468 1030,1468 1047,1409 1341,1409 C 1337,1335 1331,1268 1317,1204 L 1014,1204 Z"
   id="glyph1685" />

   <glyph
   unicode="日"
   horiz-adv-x="1348"
   d="M 1505,758 L 1505,98 549,98 549,758 1505,758 Z M 1505,819 L 549,819 549,1454 1505,1454 1505,819 Z M 414,1513 L 414,-143 438,-143 C 500,-143 549,-109 549,-88 L 549,39 1505,39 1505,-133 1526,-133 C 1575,-133 1643,-96 1645,-82 L 1645,1427 C 1686,1436 1718,1452 1733,1468 L 1563,1602 1485,1513 563,1513 414,1583 414,1513 Z"
   id="glyph1687" />

   <glyph
   unicode="振"
   horiz-adv-x="1982"
   d="M 1020,1223 L 1036,1161 1802,1161 C 1831,1161 1847,1171 1853,1194 1790,1255 1688,1337 1688,1337 L 1595,1223 1020,1223 Z M 1804,766 C 1753,680 1638,532 1542,426 1475,547 1425,682 1389,825 L 1919,825 C 1948,825 1966,836 1972,858 1905,920 1796,1008 1796,1008 L 1704,887 915,887 918,1026 918,1497 1905,1497 C 1933,1497 1952,1507 1958,1530 1890,1591 1782,1679 1782,1679 L 1688,1559 942,1559 786,1624 786,1024 C 786,631 762,213 543,-123 L 575,-145 C 838,127 899,500 913,825 L 1069,825 1069,70 C 965,43 879,23 823,12 L 930,-150 C 948,-141 963,-127 971,-98 1223,8 1409,96 1536,158 L 1528,190 1196,102 1196,825 1348,825 C 1423,363 1571,31 1882,-158 1901,-86 1948,-41 1999,-31 L 2003,-10 C 1817,66 1669,211 1561,393 1686,467 1825,569 1894,633 1935,619 1968,635 1976,653 L 1804,766 Z M 51,647 L 125,477 C 145,483 162,502 168,528 L 371,631 371,49 C 371,18 360,8 326,8 291,8 113,20 113,20 L 113,-12 C 193,-23 236,-37 264,-59 289,-82 299,-119 305,-160 481,-139 500,-74 500,37 L 500,698 760,840 750,868 500,784 500,1188 727,1188 C 756,1188 772,1198 778,1221 723,1282 629,1364 629,1364 L 545,1247 500,1247 500,1638 C 551,1645 571,1665 575,1694 L 371,1716 371,1247 84,1247 100,1188 371,1188 371,743 C 231,696 115,662 51,647 Z"
   id="glyph1689" />

   <glyph
   unicode="山"
   horiz-adv-x="1677"
   d="M 1667,1231 L 1667,156 1083,156 1083,1585 C 1135,1593 1155,1614 1159,1645 L 946,1667 946,156 373,156 373,1145 C 424,1151 442,1171 449,1200 L 236,1223 236,-154 262,-154 C 315,-154 373,-123 373,-104 L 373,94 1667,94 1667,-121 1694,-121 C 1747,-121 1806,-88 1806,-70 L 1806,1153 C 1858,1159 1876,1178 1880,1206 L 1667,1231 Z"
   id="glyph1691" />

   <glyph
   unicode="休"
   horiz-adv-x="1982"
   d="M 1188,1688 L 1188,1198 625,1198 641,1139 1102,1139 C 1001,774 813,414 547,158 L 575,131 C 854,342 1059,621 1188,942 L 1188,-152 1214,-152 C 1266,-152 1321,-119 1321,-98 L 1321,1110 C 1419,727 1622,371 1882,162 1894,221 1935,266 1993,287 L 1999,309 C 1729,479 1470,788 1362,1139 L 1901,1139 C 1929,1139 1948,1149 1954,1169 1884,1235 1774,1321 1774,1321 L 1675,1198 1321,1198 1321,1608 C 1374,1616 1391,1636 1395,1665 L 1188,1688 Z M 537,1716 C 432,1319 244,924 61,674 L 90,653 C 193,752 291,872 379,1012 L 379,-156 403,-156 C 457,-156 510,-123 512,-113 L 512,1071 C 549,1077 569,1090 578,1108 L 463,1151 C 543,1292 612,1446 672,1608 717,1606 743,1624 752,1649 L 537,1716 Z"
   id="glyph1693" />

   <glyph
   unicode="の"
   horiz-adv-x="1652"
   d="M 1008,1350 L 1081,1354 C 1419,1354 1690,1120 1690,756 1690,385 1448,127 946,39 L 954,-8 C 1624,35 1837,383 1837,723 1837,1147 1511,1423 1090,1423 870,1423 659,1354 492,1204 317,1049 219,836 219,629 219,377 363,160 500,160 709,160 946,557 1032,803 1073,920 1096,1034 1096,1133 1096,1212 1055,1284 1008,1350 Z M 932,1337 C 967,1276 989,1223 989,1149 989,1057 954,932 915,834 831,639 643,315 508,315 424,315 334,465 334,662 334,842 414,1008 545,1135 649,1237 788,1309 932,1337 Z"
   id="glyph1695" />

  </font>
    <font
       id="EmbeddedFont_2-5"
       horiz-adv-x="2048"
       horiz-origin-x="0"
       horiz-origin-y="0"
       vert-origin-x="512"
       vert-origin-y="768"
       vert-adv-y="1024">
   <font-face
   font-family="Noto Serif CJK JP Black embedded"
   units-per-em="2048"
   font-weight="normal"
   font-style="normal"
   ascent="2362"
   descent="584"
   id="font-face1700" />

   <missing-glyph
   horiz-adv-x="2048"
   d="M 0,0 L 2047,0 2047,2047 0,2047 0,0 Z"
   id="missing-glyph1702" />

   <glyph
   unicode="金"
   horiz-adv-x="2033"
   d="M 399,520 L 381,512 C 424,389 455,240 444,92 678,-152 1004,311 399,520 Z M 1352,535 C 1315,356 1266,150 1231,27 L 1253,12 C 1382,98 1528,227 1649,358 1696,356 1724,373 1733,399 L 1352,535 Z M 1126,1565 C 1239,1214 1501,989 1790,831 1810,952 1896,1096 2030,1135 L 2032,1167 C 1743,1229 1346,1337 1157,1589 1233,1597 1262,1610 1270,1640 L 825,1757 C 750,1458 383,1012 33,770 L 45,750 C 205,809 371,895 526,997 L 541,946 840,946 840,653 195,653 211,596 840,596 840,-59 90,-59 107,-117 1911,-117 C 1942,-117 1966,-107 1972,-84 1862,12 1675,154 1675,154 L 1511,-59 1149,-59 1149,596 1812,596 C 1843,596 1866,606 1872,629 1772,717 1602,848 1602,848 L 1454,653 1149,653 1149,946 1450,946 C 1479,946 1501,956 1507,979 1413,1061 1260,1178 1260,1178 L 1122,1004 537,1004 C 782,1165 999,1364 1126,1565 Z"
   id="glyph1704" />

   <glyph
   unicode="火"
   horiz-adv-x="2033"
   d="M 457,1417 C 467,1202 358,1020 258,954 180,899 141,811 188,717 246,619 383,594 475,684 604,803 666,1055 475,1419 L 457,1417 Z M 1585,1399 C 1522,1241 1378,975 1249,784 1163,1004 1122,1276 1106,1614 L 1106,1645 C 1157,1653 1178,1671 1184,1704 L 774,1741 C 774,903 834,309 41,-166 L 57,-193 C 897,90 1055,532 1092,1122 1141,465 1284,31 1755,-195 1786,-37 1878,72 2021,102 L 2023,125 C 1626,246 1397,440 1264,750 1489,862 1708,1022 1860,1145 1911,1137 1931,1151 1939,1171 L 1585,1399 Z"
   id="glyph1706" />

   <glyph
   unicode="水"
   horiz-adv-x="2008"
   d="M 1643,1417 C 1583,1284 1462,1065 1346,895 1270,1036 1208,1208 1174,1417 L 1174,1657 C 1227,1665 1241,1683 1245,1712 L 870,1749 870,1104 655,1286 512,1137 86,1137 104,1079 528,1079 C 471,690 322,285 33,27 L 49,6 C 522,233 735,629 829,1036 848,1038 860,1040 870,1042 L 870,170 C 870,145 858,133 823,133 770,133 512,150 512,150 L 512,123 C 637,100 684,68 725,23 766,-25 780,-92 788,-190 1126,-162 1174,-53 1174,150 L 1174,1282 C 1255,608 1430,283 1737,10 1778,147 1868,254 1991,279 L 2001,301 C 1776,403 1544,559 1376,838 1571,940 1761,1073 1892,1176 1944,1169 1964,1182 1974,1202 L 1643,1417 Z"
   id="glyph1708" />

   <glyph
   unicode="木"
   horiz-adv-x="2008"
   d="M 1686,1475 L 1520,1264 1171,1264 1165,1262 1165,1653 C 1223,1661 1237,1683 1241,1712 L 858,1749 858,1264 80,1264 96,1206 725,1206 C 621,788 383,326 49,37 L 68,18 C 412,193 674,430 858,715 L 858,-195 915,-195 C 1032,-195 1165,-119 1165,-90 L 1165,1171 C 1260,639 1425,274 1731,39 1778,184 1876,283 1993,305 L 2001,330 C 1667,477 1350,782 1192,1206 L 1925,1206 C 1956,1206 1980,1217 1987,1239 1874,1333 1686,1475 1686,1475 Z"
   id="glyph1710" />

   <glyph
   unicode="月"
   horiz-adv-x="1678"
   d="M 1343,1497 L 1343,1100 758,1100 758,1497 1343,1497 Z M 457,1554 L 457,911 C 457,506 418,121 84,-184 L 98,-199 C 541,-10 688,276 735,571 L 1343,571 1343,178 C 1343,150 1333,133 1298,133 1245,133 985,147 985,147 L 985,123 C 1110,98 1159,66 1200,20 1239,-25 1253,-96 1262,-197 1604,-166 1651,-55 1651,143 L 1651,1450 C 1694,1458 1718,1477 1731,1493 L 1458,1708 1323,1554 803,1554 457,1669 457,1554 Z M 1343,1042 L 1343,629 743,629 C 756,725 758,819 758,913 L 758,1042 1343,1042 Z"
   id="glyph1712" />

   <glyph
   unicode="日"
   horiz-adv-x="1474"
   d="M 1405,762 L 1405,86 672,86 672,762 1405,762 Z M 1405,819 L 672,819 672,1466 1405,1466 1405,819 Z M 358,1524 L 358,-184 410,-184 C 545,-184 672,-109 672,-70 L 672,29 1405,29 1405,-164 1456,-164 C 1575,-164 1724,-92 1729,-70 L 1729,1417 C 1769,1427 1792,1444 1806,1462 L 1530,1683 1384,1524 690,1524 358,1655 358,1524 Z"
   id="glyph1714" />

   <glyph
   unicode="土"
   horiz-adv-x="1982"
   d="M 182,995 L 199,938 852,938 852,-27 51,-27 68,-84 1939,-84 C 1970,-84 1995,-74 2001,-51 1884,47 1692,193 1692,193 L 1520,-27 1169,-27 1169,938 1825,938 C 1855,938 1880,948 1884,971 1774,1067 1587,1206 1587,1206 L 1421,995 1169,995 1169,1655 C 1227,1663 1241,1683 1245,1716 L 852,1751 852,995 182,995 Z"
   id="glyph1716" />

   <glyph
   unicode="©"
   horiz-adv-x="1626"
   d="M 868,-41 C 1292,-41 1663,274 1663,766 1663,1260 1292,1571 868,1571 440,1571 70,1260 70,766 70,274 440,-41 868,-41 Z M 868,37 C 487,37 170,322 170,766 170,1210 487,1493 868,1493 1249,1493 1567,1208 1567,766 1567,326 1249,37 868,37 Z M 909,285 C 1026,285 1118,315 1194,360 L 1200,598 1116,598 1055,363 C 1024,354 993,350 963,350 799,350 668,494 668,768 668,1042 797,1190 965,1190 993,1190 1020,1188 1047,1180 L 1110,940 1190,940 1186,1184 C 1106,1227 1032,1253 920,1253 659,1253 434,1083 434,766 434,455 645,285 909,285 Z"
   id="glyph1718" />

   <glyph
   unicode="y"
   horiz-adv-x="1271"
   d="M 797,1057 L 999,1036 862,610 731,250 446,1038 610,1057 610,1118 -14,1118 -14,1057 90,1047 582,-127 C 522,-264 467,-356 395,-420 L 363,-377 C 311,-311 252,-262 170,-262 90,-262 10,-303 -6,-395 0,-494 107,-555 221,-555 395,-555 530,-442 666,-84 L 1083,1038 1219,1057 1219,1118 797,1118 797,1057 Z"
   id="glyph1720" />

   <glyph
   unicode="t"
   horiz-adv-x="814"
   d="M 512,-35 C 670,-35 772,25 834,135 L 801,168 C 745,123 711,102 659,102 578,102 526,150 526,260 L 526,1034 778,1034 778,1118 526,1118 528,1450 317,1450 211,1118 29,1100 29,1034 195,1034 195,510 C 195,426 193,367 193,285 193,59 303,-35 512,-35 Z"
   id="glyph1722" />

   <glyph
   unicode="s"
   horiz-adv-x="941"
   d="M 487,-35 C 799,-35 987,104 987,344 987,512 893,625 678,690 L 557,727 C 397,774 356,836 356,909 356,1012 438,1075 565,1075 625,1075 668,1065 711,1044 L 788,803 905,803 920,1061 C 799,1120 694,1153 557,1153 256,1153 88,997 88,782 88,608 197,502 381,446 L 500,408 C 664,360 702,299 702,213 702,100 616,45 461,45 395,45 344,55 291,76 L 229,346 98,346 82,68 C 203,0 328,-35 487,-35 Z"
   id="glyph1724" />

   <glyph
   unicode="p"
   horiz-adv-x="1296"
   d="M 840,-35 C 1112,-35 1339,193 1339,565 1339,944 1141,1153 889,1153 754,1153 633,1106 539,999 L 522,1131 496,1151 55,1022 55,973 207,956 C 211,858 213,788 213,655 L 213,-14 209,-457 72,-471 72,-530 702,-530 702,-471 545,-453 541,-12 541,109 C 625,10 725,-35 840,-35 Z M 545,938 C 612,999 666,1012 727,1012 889,1012 983,897 983,563 983,221 875,111 715,111 647,111 596,121 545,162 L 545,938 Z"
   id="glyph1726" />

   <glyph
   unicode="o"
   horiz-adv-x="1195"
   d="M 651,-35 C 1001,-35 1233,199 1233,565 1233,932 975,1153 651,1153 330,1153 72,928 72,565 72,205 299,-35 651,-35 Z M 651,37 C 506,37 424,205 424,561 424,920 506,1081 651,1081 799,1081 879,920 879,561 879,205 799,37 651,37 Z"
   id="glyph1728" />

   <glyph
   unicode="k"
   horiz-adv-x="1347"
   d="M 780,1057 L 985,1032 729,784 545,606 545,1343 553,1673 522,1692 63,1604 63,1548 213,1536 213,487 209,76 72,63 72,0 678,0 678,63 549,76 C 547,193 545,383 545,504 L 545,518 635,602 926,0 1374,0 1374,63 1241,76 866,811 1114,1036 1313,1057 1313,1118 780,1118 780,1057 Z"
   id="glyph1730" />

   <glyph
   unicode="h"
   horiz-adv-x="1347"
   d="M 913,0 L 1380,0 1380,63 1257,74 1253,487 1253,754 C 1253,1032 1120,1153 920,1153 768,1153 659,1092 539,948 L 539,1343 545,1673 518,1692 63,1604 63,1548 213,1536 213,487 209,76 74,63 74,0 666,0 666,63 549,74 C 547,195 545,373 545,487 L 545,887 C 627,961 707,999 772,999 862,999 922,942 922,784 L 922,487 C 922,369 920,195 918,76 L 786,63 786,0 913,0 Z"
   id="glyph1732" />

   <glyph
   unicode=":"
   horiz-adv-x="408"
   d="M 348,-35 C 455,-35 537,49 537,152 537,256 455,342 348,342 242,342 160,256 160,152 160,49 242,-35 348,-35 Z M 348,754 C 455,754 537,838 537,940 537,1044 455,1131 348,1131 242,1131 160,1044 160,940 160,838 242,754 348,754 Z"
   id="glyph1734" />

   <glyph
   unicode="8"
   horiz-adv-x="1067"
   d="M 596,-35 C 956,-35 1149,139 1149,403 1149,598 1036,743 791,860 1012,954 1098,1075 1098,1210 1098,1399 954,1565 639,1565 352,1565 139,1401 139,1147 139,956 242,803 446,700 225,623 109,498 109,322 109,117 264,-35 596,-35 Z M 743,883 C 469,1004 416,1133 416,1260 416,1403 518,1493 631,1493 762,1493 838,1380 838,1221 838,1085 811,983 743,883 Z M 496,678 C 772,557 852,432 852,281 852,127 772,37 623,37 469,37 379,139 379,360 379,494 412,584 496,678 Z"
   id="glyph1736" />

   <glyph
   unicode="1"
   horiz-adv-x="839"
   d="M 98,0 L 889,-6 889,55 676,102 C 672,231 670,360 670,485 L 670,1200 678,1534 647,1554 94,1430 94,1356 334,1384 334,485 330,100 98,63 98,0 Z"
   id="glyph1738" />

   <glyph
   unicode="0"
   horiz-adv-x="1119"
   d="M 627,-35 C 909,-35 1167,209 1167,768 1167,1323 909,1565 627,1565 342,1565 88,1323 88,768 88,209 342,-35 627,-35 Z M 627,37 C 504,37 401,193 401,768 401,1339 504,1493 627,1493 748,1493 854,1337 854,768 854,195 748,37 627,37 Z"
   id="glyph1740" />

   <glyph
   unicode="/"
   horiz-adv-x="788"
   d="M 53,-371 L 197,-371 817,1647 676,1647 53,-371 Z"
   id="glyph1742" />

   <glyph
   unicode="."
   horiz-adv-x="408"
   d="M 348,-35 C 455,-35 537,49 537,152 537,256 455,342 348,342 242,342 160,256 160,152 160,49 242,-35 348,-35 Z"
   id="glyph1744" />

  </font>
    <font
       id="EmbeddedFont_3-3"
       horiz-adv-x="2048"
       horiz-origin-x="0"
       horiz-origin-y="0"
       vert-origin-x="512"
       vert-origin-y="768"
       vert-adv-y="1024">
   <font-face
   font-family="Noto Serif CJK JP Black embedded"
   units-per-em="2048"
   font-weight="bold"
   font-style="normal"
   ascent="2362"
   descent="584"
   id="font-face1749" />

   <missing-glyph
   horiz-adv-x="2048"
   d="M 0,0 L 2047,0 2047,2047 0,2047 0,0 Z"
   id="missing-glyph1751" />

   <glyph
   unicode="年"
   horiz-adv-x="1982"
   d="M 537,1776 C 428,1425 229,1071 53,858 L 72,842 C 186,901 295,969 397,1053 L 397,377 53,377 70,319 1026,319 1026,-193 1087,-193 C 1255,-193 1350,-129 1352,-111 L 1352,319 1937,319 C 1968,319 1993,330 1999,352 1886,444 1704,580 1704,580 L 1542,377 1352,377 1352,887 1837,887 C 1868,887 1890,897 1896,920 1792,1006 1620,1133 1620,1133 L 1468,944 1352,944 1352,1358 1909,1358 C 1939,1358 1964,1368 1968,1391 1853,1487 1675,1616 1675,1616 L 1513,1415 741,1415 C 780,1468 817,1526 854,1587 903,1583 932,1599 942,1626 L 537,1776 Z M 1026,377 L 713,377 713,887 1026,887 1026,377 Z M 1026,944 L 741,944 412,1065 C 514,1147 608,1245 698,1358 L 1026,1358 1026,944 Z"
   id="glyph1753" />

   <glyph
   unicode="9"
   horiz-adv-x="1119"
   d="M 219,-41 C 788,63 1171,422 1171,911 1171,1321 971,1565 612,1565 326,1565 80,1391 80,1047 80,758 272,594 539,594 655,594 750,627 815,676 754,340 565,141 207,18 L 219,-41 Z M 825,739 C 778,705 731,690 668,690 506,690 406,840 406,1092 406,1374 504,1495 621,1495 748,1495 838,1362 838,956 838,879 834,807 825,739 Z"
   id="glyph1755" />

   <glyph
   unicode="8"
   horiz-adv-x="1067"
   d="M 596,-35 C 956,-35 1149,139 1149,403 1149,598 1036,743 791,860 1012,954 1098,1075 1098,1210 1098,1399 954,1565 639,1565 352,1565 139,1401 139,1147 139,956 242,803 446,700 225,623 109,498 109,322 109,117 264,-35 596,-35 Z M 743,883 C 469,1004 416,1133 416,1260 416,1403 518,1493 631,1493 762,1493 838,1380 838,1221 838,1085 811,983 743,883 Z M 496,678 C 772,557 852,432 852,281 852,127 772,37 623,37 469,37 379,139 379,360 379,494 412,584 496,678 Z"
   id="glyph1757" />

   <glyph
   unicode="7"
   horiz-adv-x="1017"
   d="M 299,0 L 571,0 1104,1372 1104,1530 123,1530 123,1276 971,1276 279,20 299,0 Z"
   id="glyph1759" />

   <glyph
   unicode="6"
   horiz-adv-x="1119"
   d="M 649,-35 C 977,-35 1174,184 1174,473 1174,745 1026,936 758,936 627,936 514,893 428,811 477,1159 705,1423 1092,1513 L 1081,1565 C 487,1511 82,1096 82,592 82,197 303,-35 649,-35 Z M 420,741 C 485,799 557,819 629,819 774,819 850,690 850,442 850,156 764,37 651,37 512,37 418,223 418,662 L 420,741 Z"
   id="glyph1761" />

   <glyph
   unicode="5"
   horiz-adv-x="1118"
   d="M 551,-35 C 901,-35 1155,133 1155,449 1155,754 942,913 596,913 498,913 408,903 319,877 L 348,1276 1102,1276 1102,1530 264,1530 215,809 276,768 C 348,791 416,803 494,803 684,803 805,670 805,434 805,174 680,37 492,37 446,37 416,41 383,53 L 354,256 C 342,377 293,422 209,422 152,422 98,391 76,330 92,107 264,-35 551,-35 Z"
   id="glyph1763" />

   <glyph
   unicode="4"
   horiz-adv-x="1169"
   d="M 682,-31 L 975,-31 975,346 1198,346 1198,559 975,559 975,1556 745,1556 68,518 68,346 682,346 682,-31 Z M 178,559 L 451,979 682,1337 682,559 178,559 Z"
   id="glyph1765" />

   <glyph
   unicode="3"
   horiz-adv-x="1093"
   d="M 580,-35 C 930,-35 1145,137 1145,387 1145,602 1030,758 707,807 991,864 1098,1014 1098,1202 1098,1413 944,1565 621,1565 371,1565 156,1460 150,1214 172,1176 213,1151 264,1151 336,1151 399,1186 418,1290 L 457,1489 C 481,1493 504,1495 524,1495 680,1495 772,1393 772,1190 772,946 651,836 471,836 L 401,836 401,756 481,756 C 690,756 801,627 801,385 801,156 684,37 473,37 444,37 420,39 397,45 L 365,246 C 346,383 295,424 213,424 160,424 107,395 84,330 102,100 268,-35 580,-35 Z"
   id="glyph1767" />

   <glyph
   unicode="2"
   horiz-adv-x="1067"
   d="M 121,0 L 1149,0 1149,252 287,252 C 383,336 477,414 543,467 924,766 1112,926 1112,1147 1112,1391 963,1565 639,1565 367,1565 129,1436 117,1192 139,1139 190,1104 250,1104 313,1104 381,1137 403,1276 L 444,1487 C 471,1493 498,1495 524,1495 682,1495 778,1376 778,1167 778,944 678,809 455,557 354,442 240,313 121,184 L 121,0 Z"
   id="glyph1769" />

   <glyph
   unicode="1"
   horiz-adv-x="839"
   d="M 98,0 L 889,-6 889,55 676,102 C 672,231 670,360 670,485 L 670,1200 678,1534 647,1554 94,1430 94,1356 334,1384 334,485 330,100 98,63 98,0 Z"
   id="glyph1771" />

   <glyph
   unicode="0"
   horiz-adv-x="1119"
   d="M 627,-35 C 909,-35 1167,209 1167,768 1167,1323 909,1565 627,1565 342,1565 88,1323 88,768 88,209 342,-35 627,-35 Z M 627,37 C 504,37 401,193 401,768 401,1339 504,1493 627,1493 748,1493 854,1337 854,768 854,195 748,37 627,37 Z"
   id="glyph1773" />

  </font>
    <g
       ooo:slide="id1"
       ooo:id-list="id3"
       id="g1778" />
    <g
       id="bullet-char-template-57356-5"
       transform="matrix(4.8828125e-4,0,0,-4.8828125e-4,0,0)">
   <path
   d="M 580,1141 1163,571 580,0 -4,571 Z"
   id="path1782" />

  </g>
    <g
       id="bullet-char-template-57354-6"
       transform="matrix(4.8828125e-4,0,0,-4.8828125e-4,0,0)">
   <path
   d="M 8,1128 H 1137 V 0 H 8 Z"
   id="path1785" />

  </g>
    <g
       id="bullet-char-template-10146-2"
       transform="matrix(4.8828125e-4,0,0,-4.8828125e-4,0,0)">
   <path
   d="M 174,0 602,739 174,1481 1456,739 Z M 1358,739 309,1346 659,739 Z"
   id="path1788" />

  </g>
    <g
       id="bullet-char-template-10132-9"
       transform="matrix(4.8828125e-4,0,0,-4.8828125e-4,0,0)">
   <path
   d="M 2015,739 1276,0 H 717 l 543,543 H 174 v 393 h 1086 l -543,545 h 557 z"
   id="path1791" />

  </g>
    <g
       id="bullet-char-template-10007-1"
       transform="matrix(4.8828125e-4,0,0,-4.8828125e-4,0,0)">
   <path
   d="m 0,-2 c -7,16 -16,29 -25,39 l 381,530 c -94,256 -141,385 -141,387 0,25 13,38 40,38 9,0 21,-2 34,-5 21,4 42,12 65,25 l 27,-13 111,-251 280,301 64,-25 24,25 c 21,-10 41,-24 62,-43 C 886,937 835,863 770,784 769,783 710,716 594,584 L 774,223 c 0,-27 -21,-55 -63,-84 l 16,-20 C 717,90 699,76 672,76 641,76 570,178 457,381 L 164,-76 c -22,-34 -53,-51 -92,-51 -42,0 -63,17 -64,51 -7,9 -10,24 -10,44 0,9 1,19 2,30 z"
   id="path1794" />

  </g>
    <g
       id="bullet-char-template-10004-2"
       transform="matrix(4.8828125e-4,0,0,-4.8828125e-4,0,0)">
   <path
   d="M 285,-33 C 182,-33 111,30 74,156 52,228 41,333 41,471 c 0,78 14,145 41,201 34,71 87,106 158,106 53,0 88,-31 106,-94 l 23,-176 c 8,-64 28,-97 59,-98 l 735,706 c 11,11 33,17 66,17 42,0 63,-15 63,-46 V 965 c 0,-36 -10,-64 -30,-84 L 442,47 C 390,-6 338,-33 285,-33 Z"
   id="path1797" />

  </g>
    <g
       id="bullet-char-template-9679-7"
       transform="matrix(4.8828125e-4,0,0,-4.8828125e-4,0,0)">
   <path
   d="M 813,0 C 632,0 489,54 383,161 276,268 223,411 223,592 c 0,181 53,324 160,431 106,107 249,161 430,161 179,0 323,-54 432,-161 108,-107 162,-251 162,-431 0,-180 -54,-324 -162,-431 C 1136,54 992,0 813,0 Z"
   id="path1800" />

  </g>
    <g
       id="bullet-char-template-8226-0"
       transform="matrix(4.8828125e-4,0,0,-4.8828125e-4,0,0)">
   <path
   d="m 346,457 c -73,0 -137,26 -191,78 -54,51 -81,114 -81,188 0,73 27,136 81,188 54,52 118,78 191,78 73,0 134,-26 185,-79 51,-51 77,-114 77,-187 0,-75 -25,-137 -76,-188 -50,-52 -112,-78 -186,-78 z"
   id="path1803" />

  </g>
    <g
       id="bullet-char-template-8211-9"
       transform="matrix(4.8828125e-4,0,0,-4.8828125e-4,0,0)">
   <path
   d="M -4,459 H 1135 V 606 H -4 Z"
   id="path1806" />

  </g>
    <g
       id="bullet-char-template-61548-3"
       transform="matrix(4.8828125e-4,0,0,-4.8828125e-4,0,0)">
   <path
   d="m 173,740 c 0,163 58,303 173,419 116,115 255,173 419,173 163,0 302,-58 418,-173 116,-116 174,-256 174,-419 0,-163 -58,-303 -174,-418 C 1067,206 928,148 765,148 601,148 462,206 346,322 231,437 173,577 173,740 Z"
   id="path1809" />

  </g>
    <clipPath
       id="clip_path_1-6"
       clipPathUnits="userSpaceOnUse">
          <path
   d="m 5801,10189 h 9773 v 9624 H 5801 Z"
   id="path1821" />

         </clipPath>
    <clipPath
       id="clip_path_2-0"
       clipPathUnits="userSpaceOnUse">
          <path
   d="m 8839,10490 h 2515 v 1092 H 8839 Z"
   id="path2170" />

         </clipPath>
    <clipPath
       id="clip_path_3-6"
       clipPathUnits="userSpaceOnUse">
          <path
   d="m 5801,10189 h 9773 v 9624 H 5801 Z"
   id="path2195" />

         </clipPath>
    <clipPath
       id="clip_path_4-2"
       clipPathUnits="userSpaceOnUse">
          <path
   d="m 5801,10189 h 9773 v 9624 H 5801 Z"
   id="path2218" />

         </clipPath>
    <clipPath
       id="clip_path_5-6"
       clipPathUnits="userSpaceOnUse">
          <path
   d="m 5801,10189 h 9773 v 9624 H 5801 Z"
   id="path2225" />

         </clipPath>
    <clipPath
       id="presentation_clip_path-1"
       clipPathUnits="userSpaceOnUse">
   <rect
   x="0"
   y="0"
   width="21000"
   height="29700"
   id="rect4382" />

  </clipPath>
    <clipPath
       id="presentation_clip_path_shrink-8"
       clipPathUnits="userSpaceOnUse">
   <rect
   x="21"
   y="29"
   width="20958"
   height="29641"
   id="rect4385" />

  </clipPath>
    <font
       id="EmbeddedFont_1-79"
       horiz-adv-x="2048"
       horiz-origin-x="0"
       horiz-origin-y="0"
       vert-origin-x="512"
       vert-origin-y="768"
       vert-adv-y="1024">
   <font-face
   font-family="Noto Serif CJK JP embedded"
   units-per-em="2048"
   font-weight="normal"
   font-style="normal"
   ascent="2362"
   descent="584"
   id="font-face4390" />

   <missing-glyph
   horiz-adv-x="2048"
   d="M 0,0 L 2047,0 2047,2047 0,2047 0,0 Z"
   id="missing-glyph4392" />

   <glyph
   unicode="海"
   horiz-adv-x="1982"
   d="M 254,1696 L 233,1677 C 319,1616 424,1503 457,1411 604,1325 690,1614 254,1696 Z M 96,1225 L 76,1206 C 164,1149 264,1042 295,952 438,866 524,1157 96,1225 Z M 201,420 C 180,420 113,420 113,420 L 113,375 C 156,371 186,365 211,346 258,317 268,154 240,-57 244,-121 268,-160 305,-160 371,-160 410,-107 414,-18 422,150 363,246 363,338 363,387 375,453 393,514 422,610 586,1079 672,1331 L 631,1341 C 287,535 287,535 252,463 233,422 225,420 201,420 Z M 1239,1085 C 1229,977 1212,844 1196,711 L 913,711 973,1085 1239,1085 Z M 1358,1085 L 1634,1085 C 1630,948 1624,823 1616,711 L 1319,711 1358,1085 Z M 510,711 L 526,651 770,651 C 733,440 692,219 653,41 727,25 762,29 795,47 L 825,201 1556,201 C 1538,111 1518,53 1493,31 1470,10 1452,2 1411,2 1368,2 1227,18 1143,25 L 1141,-12 C 1217,-25 1298,-41 1329,-66 1356,-86 1364,-119 1364,-158 1452,-158 1534,-131 1589,-68 1630,-25 1663,63 1688,201 L 1942,201 C 1970,201 1991,211 1995,231 1935,297 1831,385 1831,385 L 1743,260 1698,260 C 1714,367 1729,498 1739,651 L 1964,651 C 1991,651 2009,662 2015,684 1956,743 1855,827 1855,827 L 1767,711 1743,711 C 1749,819 1753,940 1757,1069 1804,1075 1829,1085 1841,1102 L 1690,1231 1614,1147 1010,1147 860,1217 C 842,1085 813,903 780,711 L 510,711 Z M 944,1714 C 868,1432 731,1163 592,997 L 619,975 C 741,1069 854,1202 948,1360 L 1905,1360 C 1935,1360 1956,1370 1960,1393 1894,1454 1788,1540 1788,1540 L 1692,1421 983,1421 C 1016,1481 1044,1542 1071,1608 1116,1604 1141,1622 1149,1645 L 944,1714 Z M 1188,651 C 1169,508 1151,369 1135,260 L 836,260 903,651 1188,651 Z M 1313,651 L 1612,651 C 1599,494 1585,363 1569,260 L 1264,260 C 1280,369 1296,508 1313,651 Z"
   id="glyph4394" />

   <glyph
   unicode="日"
   horiz-adv-x="1348"
   d="M 1505,758 L 1505,98 549,98 549,758 1505,758 Z M 1505,819 L 549,819 549,1454 1505,1454 1505,819 Z M 414,1513 L 414,-143 438,-143 C 500,-143 549,-109 549,-88 L 549,39 1505,39 1505,-133 1526,-133 C 1575,-133 1643,-96 1645,-82 L 1645,1427 C 1686,1436 1718,1452 1733,1468 L 1563,1602 1485,1513 563,1513 414,1583 414,1513 Z"
   id="glyph4396" />

   <glyph
   unicode="の"
   horiz-adv-x="1652"
   d="M 1008,1350 L 1081,1354 C 1419,1354 1690,1120 1690,756 1690,385 1448,127 946,39 L 954,-8 C 1624,35 1837,383 1837,723 1837,1147 1511,1423 1090,1423 870,1423 659,1354 492,1204 317,1049 219,836 219,629 219,377 363,160 500,160 709,160 946,557 1032,803 1073,920 1096,1034 1096,1133 1096,1212 1055,1284 1008,1350 Z M 932,1337 C 967,1276 989,1223 989,1149 989,1057 954,932 915,834 831,639 643,315 508,315 424,315 334,465 334,662 334,842 414,1008 545,1135 649,1237 788,1309 932,1337 Z"
   id="glyph4398" />

  </font>
    <font
       id="EmbeddedFont_2-2"
       horiz-adv-x="2048"
       horiz-origin-x="0"
       horiz-origin-y="0"
       vert-origin-x="512"
       vert-origin-y="768"
       vert-adv-y="1024">
   <font-face
   font-family="Noto Serif CJK JP Black embedded"
   units-per-em="2048"
   font-weight="normal"
   font-style="normal"
   ascent="2362"
   descent="584"
   id="font-face4403" />

   <missing-glyph
   horiz-adv-x="2048"
   d="M 0,0 L 2047,0 2047,2047 0,2047 0,0 Z"
   id="missing-glyph4405" />

   <glyph
   unicode="金"
   horiz-adv-x="2033"
   d="M 399,520 L 381,512 C 424,389 455,240 444,92 678,-152 1004,311 399,520 Z M 1352,535 C 1315,356 1266,150 1231,27 L 1253,12 C 1382,98 1528,227 1649,358 1696,356 1724,373 1733,399 L 1352,535 Z M 1126,1565 C 1239,1214 1501,989 1790,831 1810,952 1896,1096 2030,1135 L 2032,1167 C 1743,1229 1346,1337 1157,1589 1233,1597 1262,1610 1270,1640 L 825,1757 C 750,1458 383,1012 33,770 L 45,750 C 205,809 371,895 526,997 L 541,946 840,946 840,653 195,653 211,596 840,596 840,-59 90,-59 107,-117 1911,-117 C 1942,-117 1966,-107 1972,-84 1862,12 1675,154 1675,154 L 1511,-59 1149,-59 1149,596 1812,596 C 1843,596 1866,606 1872,629 1772,717 1602,848 1602,848 L 1454,653 1149,653 1149,946 1450,946 C 1479,946 1501,956 1507,979 1413,1061 1260,1178 1260,1178 L 1122,1004 537,1004 C 782,1165 999,1364 1126,1565 Z"
   id="glyph4407" />

   <glyph
   unicode="火"
   horiz-adv-x="2033"
   d="M 457,1417 C 467,1202 358,1020 258,954 180,899 141,811 188,717 246,619 383,594 475,684 604,803 666,1055 475,1419 L 457,1417 Z M 1585,1399 C 1522,1241 1378,975 1249,784 1163,1004 1122,1276 1106,1614 L 1106,1645 C 1157,1653 1178,1671 1184,1704 L 774,1741 C 774,903 834,309 41,-166 L 57,-193 C 897,90 1055,532 1092,1122 1141,465 1284,31 1755,-195 1786,-37 1878,72 2021,102 L 2023,125 C 1626,246 1397,440 1264,750 1489,862 1708,1022 1860,1145 1911,1137 1931,1151 1939,1171 L 1585,1399 Z"
   id="glyph4409" />

   <glyph
   unicode="水"
   horiz-adv-x="2008"
   d="M 1643,1417 C 1583,1284 1462,1065 1346,895 1270,1036 1208,1208 1174,1417 L 1174,1657 C 1227,1665 1241,1683 1245,1712 L 870,1749 870,1104 655,1286 512,1137 86,1137 104,1079 528,1079 C 471,690 322,285 33,27 L 49,6 C 522,233 735,629 829,1036 848,1038 860,1040 870,1042 L 870,170 C 870,145 858,133 823,133 770,133 512,150 512,150 L 512,123 C 637,100 684,68 725,23 766,-25 780,-92 788,-190 1126,-162 1174,-53 1174,150 L 1174,1282 C 1255,608 1430,283 1737,10 1778,147 1868,254 1991,279 L 2001,301 C 1776,403 1544,559 1376,838 1571,940 1761,1073 1892,1176 1944,1169 1964,1182 1974,1202 L 1643,1417 Z"
   id="glyph4411" />

   <glyph
   unicode="木"
   horiz-adv-x="2008"
   d="M 1686,1475 L 1520,1264 1171,1264 1165,1262 1165,1653 C 1223,1661 1237,1683 1241,1712 L 858,1749 858,1264 80,1264 96,1206 725,1206 C 621,788 383,326 49,37 L 68,18 C 412,193 674,430 858,715 L 858,-195 915,-195 C 1032,-195 1165,-119 1165,-90 L 1165,1171 C 1260,639 1425,274 1731,39 1778,184 1876,283 1993,305 L 2001,330 C 1667,477 1350,782 1192,1206 L 1925,1206 C 1956,1206 1980,1217 1987,1239 1874,1333 1686,1475 1686,1475 Z"
   id="glyph4413" />

   <glyph
   unicode="月"
   horiz-adv-x="1678"
   d="M 1343,1497 L 1343,1100 758,1100 758,1497 1343,1497 Z M 457,1554 L 457,911 C 457,506 418,121 84,-184 L 98,-199 C 541,-10 688,276 735,571 L 1343,571 1343,178 C 1343,150 1333,133 1298,133 1245,133 985,147 985,147 L 985,123 C 1110,98 1159,66 1200,20 1239,-25 1253,-96 1262,-197 1604,-166 1651,-55 1651,143 L 1651,1450 C 1694,1458 1718,1477 1731,1493 L 1458,1708 1323,1554 803,1554 457,1669 457,1554 Z M 1343,1042 L 1343,629 743,629 C 756,725 758,819 758,913 L 758,1042 1343,1042 Z"
   id="glyph4415" />

   <glyph
   unicode="日"
   horiz-adv-x="1474"
   d="M 1405,762 L 1405,86 672,86 672,762 1405,762 Z M 1405,819 L 672,819 672,1466 1405,1466 1405,819 Z M 358,1524 L 358,-184 410,-184 C 545,-184 672,-109 672,-70 L 672,29 1405,29 1405,-164 1456,-164 C 1575,-164 1724,-92 1729,-70 L 1729,1417 C 1769,1427 1792,1444 1806,1462 L 1530,1683 1384,1524 690,1524 358,1655 358,1524 Z"
   id="glyph4417" />

   <glyph
   unicode="土"
   horiz-adv-x="1982"
   d="M 182,995 L 199,938 852,938 852,-27 51,-27 68,-84 1939,-84 C 1970,-84 1995,-74 2001,-51 1884,47 1692,193 1692,193 L 1520,-27 1169,-27 1169,938 1825,938 C 1855,938 1880,948 1884,971 1774,1067 1587,1206 1587,1206 L 1421,995 1169,995 1169,1655 C 1227,1663 1241,1683 1245,1716 L 852,1751 852,995 182,995 Z"
   id="glyph4419" />

   <glyph
   unicode="©"
   horiz-adv-x="1626"
   d="M 868,-41 C 1292,-41 1663,274 1663,766 1663,1260 1292,1571 868,1571 440,1571 70,1260 70,766 70,274 440,-41 868,-41 Z M 868,37 C 487,37 170,322 170,766 170,1210 487,1493 868,1493 1249,1493 1567,1208 1567,766 1567,326 1249,37 868,37 Z M 909,285 C 1026,285 1118,315 1194,360 L 1200,598 1116,598 1055,363 C 1024,354 993,350 963,350 799,350 668,494 668,768 668,1042 797,1190 965,1190 993,1190 1020,1188 1047,1180 L 1110,940 1190,940 1186,1184 C 1106,1227 1032,1253 920,1253 659,1253 434,1083 434,766 434,455 645,285 909,285 Z"
   id="glyph4421" />

   <glyph
   unicode="y"
   horiz-adv-x="1271"
   d="M 797,1057 L 999,1036 862,610 731,250 446,1038 610,1057 610,1118 -14,1118 -14,1057 90,1047 582,-127 C 522,-264 467,-356 395,-420 L 363,-377 C 311,-311 252,-262 170,-262 90,-262 10,-303 -6,-395 0,-494 107,-555 221,-555 395,-555 530,-442 666,-84 L 1083,1038 1219,1057 1219,1118 797,1118 797,1057 Z"
   id="glyph4423" />

   <glyph
   unicode="t"
   horiz-adv-x="814"
   d="M 512,-35 C 670,-35 772,25 834,135 L 801,168 C 745,123 711,102 659,102 578,102 526,150 526,260 L 526,1034 778,1034 778,1118 526,1118 528,1450 317,1450 211,1118 29,1100 29,1034 195,1034 195,510 C 195,426 193,367 193,285 193,59 303,-35 512,-35 Z"
   id="glyph4425" />

   <glyph
   unicode="s"
   horiz-adv-x="941"
   d="M 487,-35 C 799,-35 987,104 987,344 987,512 893,625 678,690 L 557,727 C 397,774 356,836 356,909 356,1012 438,1075 565,1075 625,1075 668,1065 711,1044 L 788,803 905,803 920,1061 C 799,1120 694,1153 557,1153 256,1153 88,997 88,782 88,608 197,502 381,446 L 500,408 C 664,360 702,299 702,213 702,100 616,45 461,45 395,45 344,55 291,76 L 229,346 98,346 82,68 C 203,0 328,-35 487,-35 Z"
   id="glyph4427" />

   <glyph
   unicode="p"
   horiz-adv-x="1296"
   d="M 840,-35 C 1112,-35 1339,193 1339,565 1339,944 1141,1153 889,1153 754,1153 633,1106 539,999 L 522,1131 496,1151 55,1022 55,973 207,956 C 211,858 213,788 213,655 L 213,-14 209,-457 72,-471 72,-530 702,-530 702,-471 545,-453 541,-12 541,109 C 625,10 725,-35 840,-35 Z M 545,938 C 612,999 666,1012 727,1012 889,1012 983,897 983,563 983,221 875,111 715,111 647,111 596,121 545,162 L 545,938 Z"
   id="glyph4429" />

   <glyph
   unicode="o"
   horiz-adv-x="1195"
   d="M 651,-35 C 1001,-35 1233,199 1233,565 1233,932 975,1153 651,1153 330,1153 72,928 72,565 72,205 299,-35 651,-35 Z M 651,37 C 506,37 424,205 424,561 424,920 506,1081 651,1081 799,1081 879,920 879,561 879,205 799,37 651,37 Z"
   id="glyph4431" />

   <glyph
   unicode="k"
   horiz-adv-x="1347"
   d="M 780,1057 L 985,1032 729,784 545,606 545,1343 553,1673 522,1692 63,1604 63,1548 213,1536 213,487 209,76 72,63 72,0 678,0 678,63 549,76 C 547,193 545,383 545,504 L 545,518 635,602 926,0 1374,0 1374,63 1241,76 866,811 1114,1036 1313,1057 1313,1118 780,1118 780,1057 Z"
   id="glyph4433" />

   <glyph
   unicode="h"
   horiz-adv-x="1347"
   d="M 913,0 L 1380,0 1380,63 1257,74 1253,487 1253,754 C 1253,1032 1120,1153 920,1153 768,1153 659,1092 539,948 L 539,1343 545,1673 518,1692 63,1604 63,1548 213,1536 213,487 209,76 74,63 74,0 666,0 666,63 549,74 C 547,195 545,373 545,487 L 545,887 C 627,961 707,999 772,999 862,999 922,942 922,784 L 922,487 C 922,369 920,195 918,76 L 786,63 786,0 913,0 Z"
   id="glyph4435" />

   <glyph
   unicode=":"
   horiz-adv-x="408"
   d="M 348,-35 C 455,-35 537,49 537,152 537,256 455,342 348,342 242,342 160,256 160,152 160,49 242,-35 348,-35 Z M 348,754 C 455,754 537,838 537,940 537,1044 455,1131 348,1131 242,1131 160,1044 160,940 160,838 242,754 348,754 Z"
   id="glyph4437" />

   <glyph
   unicode="7"
   horiz-adv-x="1017"
   d="M 299,0 L 571,0 1104,1372 1104,1530 123,1530 123,1276 971,1276 279,20 299,0 Z"
   id="glyph4439" />

   <glyph
   unicode="1"
   horiz-adv-x="839"
   d="M 98,0 L 889,-6 889,55 676,102 C 672,231 670,360 670,485 L 670,1200 678,1534 647,1554 94,1430 94,1356 334,1384 334,485 330,100 98,63 98,0 Z"
   id="glyph4441" />

   <glyph
   unicode="0"
   horiz-adv-x="1119"
   d="M 627,-35 C 909,-35 1167,209 1167,768 1167,1323 909,1565 627,1565 342,1565 88,1323 88,768 88,209 342,-35 627,-35 Z M 627,37 C 504,37 401,193 401,768 401,1339 504,1493 627,1493 748,1493 854,1337 854,768 854,195 748,37 627,37 Z"
   id="glyph4443" />

   <glyph
   unicode="/"
   horiz-adv-x="788"
   d="M 53,-371 L 197,-371 817,1647 676,1647 53,-371 Z"
   id="glyph4445" />

   <glyph
   unicode="."
   horiz-adv-x="408"
   d="M 348,-35 C 455,-35 537,49 537,152 537,256 455,342 348,342 242,342 160,256 160,152 160,49 242,-35 348,-35 Z"
   id="glyph4447" />

  </font>
    <font
       id="EmbeddedFont_3-0"
       horiz-adv-x="2048"
       horiz-origin-x="0"
       horiz-origin-y="0"
       vert-origin-x="512"
       vert-origin-y="768"
       vert-adv-y="1024">
   <font-face
   font-family="Noto Serif CJK JP Black embedded"
   units-per-em="2048"
   font-weight="bold"
   font-style="normal"
   ascent="2362"
   descent="584"
   id="font-face4452" />

   <missing-glyph
   horiz-adv-x="2048"
   d="M 0,0 L 2047,0 2047,2047 0,2047 0,0 Z"
   id="missing-glyph4454" />

   <glyph
   unicode="年"
   horiz-adv-x="1982"
   d="M 537,1776 C 428,1425 229,1071 53,858 L 72,842 C 186,901 295,969 397,1053 L 397,377 53,377 70,319 1026,319 1026,-193 1087,-193 C 1255,-193 1350,-129 1352,-111 L 1352,319 1937,319 C 1968,319 1993,330 1999,352 1886,444 1704,580 1704,580 L 1542,377 1352,377 1352,887 1837,887 C 1868,887 1890,897 1896,920 1792,1006 1620,1133 1620,1133 L 1468,944 1352,944 1352,1358 1909,1358 C 1939,1358 1964,1368 1968,1391 1853,1487 1675,1616 1675,1616 L 1513,1415 741,1415 C 780,1468 817,1526 854,1587 903,1583 932,1599 942,1626 L 537,1776 Z M 1026,377 L 713,377 713,887 1026,887 1026,377 Z M 1026,944 L 741,944 412,1065 C 514,1147 608,1245 698,1358 L 1026,1358 1026,944 Z"
   id="glyph4456" />

   <glyph
   unicode="9"
   horiz-adv-x="1119"
   d="M 219,-41 C 788,63 1171,422 1171,911 1171,1321 971,1565 612,1565 326,1565 80,1391 80,1047 80,758 272,594 539,594 655,594 750,627 815,676 754,340 565,141 207,18 L 219,-41 Z M 825,739 C 778,705 731,690 668,690 506,690 406,840 406,1092 406,1374 504,1495 621,1495 748,1495 838,1362 838,956 838,879 834,807 825,739 Z"
   id="glyph4458" />

   <glyph
   unicode="8"
   horiz-adv-x="1067"
   d="M 596,-35 C 956,-35 1149,139 1149,403 1149,598 1036,743 791,860 1012,954 1098,1075 1098,1210 1098,1399 954,1565 639,1565 352,1565 139,1401 139,1147 139,956 242,803 446,700 225,623 109,498 109,322 109,117 264,-35 596,-35 Z M 743,883 C 469,1004 416,1133 416,1260 416,1403 518,1493 631,1493 762,1493 838,1380 838,1221 838,1085 811,983 743,883 Z M 496,678 C 772,557 852,432 852,281 852,127 772,37 623,37 469,37 379,139 379,360 379,494 412,584 496,678 Z"
   id="glyph4460" />

   <glyph
   unicode="7"
   horiz-adv-x="1017"
   d="M 299,0 L 571,0 1104,1372 1104,1530 123,1530 123,1276 971,1276 279,20 299,0 Z"
   id="glyph4462" />

   <glyph
   unicode="6"
   horiz-adv-x="1119"
   d="M 649,-35 C 977,-35 1174,184 1174,473 1174,745 1026,936 758,936 627,936 514,893 428,811 477,1159 705,1423 1092,1513 L 1081,1565 C 487,1511 82,1096 82,592 82,197 303,-35 649,-35 Z M 420,741 C 485,799 557,819 629,819 774,819 850,690 850,442 850,156 764,37 651,37 512,37 418,223 418,662 L 420,741 Z"
   id="glyph4464" />

   <glyph
   unicode="5"
   horiz-adv-x="1118"
   d="M 551,-35 C 901,-35 1155,133 1155,449 1155,754 942,913 596,913 498,913 408,903 319,877 L 348,1276 1102,1276 1102,1530 264,1530 215,809 276,768 C 348,791 416,803 494,803 684,803 805,670 805,434 805,174 680,37 492,37 446,37 416,41 383,53 L 354,256 C 342,377 293,422 209,422 152,422 98,391 76,330 92,107 264,-35 551,-35 Z"
   id="glyph4466" />

   <glyph
   unicode="4"
   horiz-adv-x="1169"
   d="M 682,-31 L 975,-31 975,346 1198,346 1198,559 975,559 975,1556 745,1556 68,518 68,346 682,346 682,-31 Z M 178,559 L 451,979 682,1337 682,559 178,559 Z"
   id="glyph4468" />

   <glyph
   unicode="3"
   horiz-adv-x="1093"
   d="M 580,-35 C 930,-35 1145,137 1145,387 1145,602 1030,758 707,807 991,864 1098,1014 1098,1202 1098,1413 944,1565 621,1565 371,1565 156,1460 150,1214 172,1176 213,1151 264,1151 336,1151 399,1186 418,1290 L 457,1489 C 481,1493 504,1495 524,1495 680,1495 772,1393 772,1190 772,946 651,836 471,836 L 401,836 401,756 481,756 C 690,756 801,627 801,385 801,156 684,37 473,37 444,37 420,39 397,45 L 365,246 C 346,383 295,424 213,424 160,424 107,395 84,330 102,100 268,-35 580,-35 Z"
   id="glyph4470" />

   <glyph
   unicode="2"
   horiz-adv-x="1067"
   d="M 121,0 L 1149,0 1149,252 287,252 C 383,336 477,414 543,467 924,766 1112,926 1112,1147 1112,1391 963,1565 639,1565 367,1565 129,1436 117,1192 139,1139 190,1104 250,1104 313,1104 381,1137 403,1276 L 444,1487 C 471,1493 498,1495 524,1495 682,1495 778,1376 778,1167 778,944 678,809 455,557 354,442 240,313 121,184 L 121,0 Z"
   id="glyph4472" />

   <glyph
   unicode="1"
   horiz-adv-x="839"
   d="M 98,0 L 889,-6 889,55 676,102 C 672,231 670,360 670,485 L 670,1200 678,1534 647,1554 94,1430 94,1356 334,1384 334,485 330,100 98,63 98,0 Z"
   id="glyph4474" />

   <glyph
   unicode="0"
   horiz-adv-x="1119"
   d="M 627,-35 C 909,-35 1167,209 1167,768 1167,1323 909,1565 627,1565 342,1565 88,1323 88,768 88,209 342,-35 627,-35 Z M 627,37 C 504,37 401,193 401,768 401,1339 504,1493 627,1493 748,1493 854,1337 854,768 854,195 748,37 627,37 Z"
   id="glyph4476" />

  </font>
    <g
       ooo:slide="id1"
       ooo:id-list="id3"
       id="g4481" />
    <g
       id="bullet-char-template-57356-2"
       transform="matrix(4.8828125e-4,0,0,-4.8828125e-4,0,0)">
   <path
   d="M 580,1141 1163,571 580,0 -4,571 Z"
   id="path4485" />

  </g>
    <g
       id="bullet-char-template-57354-3"
       transform="matrix(4.8828125e-4,0,0,-4.8828125e-4,0,0)">
   <path
   d="M 8,1128 H 1137 V 0 H 8 Z"
   id="path4488" />

  </g>
    <g
       id="bullet-char-template-10146-7"
       transform="matrix(4.8828125e-4,0,0,-4.8828125e-4,0,0)">
   <path
   d="M 174,0 602,739 174,1481 1456,739 Z M 1358,739 309,1346 659,739 Z"
   id="path4491" />

  </g>
    <g
       id="bullet-char-template-10132-5"
       transform="matrix(4.8828125e-4,0,0,-4.8828125e-4,0,0)">
   <path
   d="M 2015,739 1276,0 H 717 l 543,543 H 174 v 393 h 1086 l -543,545 h 557 z"
   id="path4494" />

  </g>
    <g
       id="bullet-char-template-10007-9"
       transform="matrix(4.8828125e-4,0,0,-4.8828125e-4,0,0)">
   <path
   d="m 0,-2 c -7,16 -16,29 -25,39 l 381,530 c -94,256 -141,385 -141,387 0,25 13,38 40,38 9,0 21,-2 34,-5 21,4 42,12 65,25 l 27,-13 111,-251 280,301 64,-25 24,25 c 21,-10 41,-24 62,-43 C 886,937 835,863 770,784 769,783 710,716 594,584 L 774,223 c 0,-27 -21,-55 -63,-84 l 16,-20 C 717,90 699,76 672,76 641,76 570,178 457,381 L 164,-76 c -22,-34 -53,-51 -92,-51 -42,0 -63,17 -64,51 -7,9 -10,24 -10,44 0,9 1,19 2,30 z"
   id="path4497" />

  </g>
    <g
       id="bullet-char-template-10004-22"
       transform="matrix(4.8828125e-4,0,0,-4.8828125e-4,0,0)">
   <path
   d="M 285,-33 C 182,-33 111,30 74,156 52,228 41,333 41,471 c 0,78 14,145 41,201 34,71 87,106 158,106 53,0 88,-31 106,-94 l 23,-176 c 8,-64 28,-97 59,-98 l 735,706 c 11,11 33,17 66,17 42,0 63,-15 63,-46 V 965 c 0,-36 -10,-64 -30,-84 L 442,47 C 390,-6 338,-33 285,-33 Z"
   id="path4500" />

  </g>
    <g
       id="bullet-char-template-9679-8"
       transform="matrix(4.8828125e-4,0,0,-4.8828125e-4,0,0)">
   <path
   d="M 813,0 C 632,0 489,54 383,161 276,268 223,411 223,592 c 0,181 53,324 160,431 106,107 249,161 430,161 179,0 323,-54 432,-161 108,-107 162,-251 162,-431 0,-180 -54,-324 -162,-431 C 1136,54 992,0 813,0 Z"
   id="path4503" />

  </g>
    <g
       id="bullet-char-template-8226-9"
       transform="matrix(4.8828125e-4,0,0,-4.8828125e-4,0,0)">
   <path
   d="m 346,457 c -73,0 -137,26 -191,78 -54,51 -81,114 -81,188 0,73 27,136 81,188 54,52 118,78 191,78 73,0 134,-26 185,-79 51,-51 77,-114 77,-187 0,-75 -25,-137 -76,-188 -50,-52 -112,-78 -186,-78 z"
   id="path4506" />

  </g>
    <g
       id="bullet-char-template-8211-7"
       transform="matrix(4.8828125e-4,0,0,-4.8828125e-4,0,0)">
   <path
   d="M -4,459 H 1135 V 606 H -4 Z"
   id="path4509" />

  </g>
    <g
       id="bullet-char-template-61548-36"
       transform="matrix(4.8828125e-4,0,0,-4.8828125e-4,0,0)">
   <path
   d="m 173,740 c 0,163 58,303 173,419 116,115 255,173 419,173 163,0 302,-58 418,-173 116,-116 174,-256 174,-419 0,-163 -58,-303 -174,-418 C 1067,206 928,148 765,148 601,148 462,206 346,322 231,437 173,577 173,740 Z"
   id="path4512" />

  </g>
    <clipPath
       id="clip_path_1-1"
       clipPathUnits="userSpaceOnUse">
          <path
   d="m 5801,10189 h 9773 v 9623 H 5801 Z"
   id="path4524" />

         </clipPath>
    <clipPath
       id="clip_path_2-2"
       clipPathUnits="userSpaceOnUse">
          <path
   d="m 8839,10490 h 2515 v 1092 H 8839 Z"
   id="path4873" />

         </clipPath>
    <clipPath
       id="clip_path_3-9"
       clipPathUnits="userSpaceOnUse">
          <path
   d="m 5801,10189 h 9773 v 9623 H 5801 Z"
   id="path4898" />

         </clipPath>
    <clipPath
       id="clip_path_4-3"
       clipPathUnits="userSpaceOnUse">
          <path
   d="m 5801,10189 h 9773 v 9623 H 5801 Z"
   id="path4913" />

         </clipPath>
    <clipPath
       id="clip_path_5-1"
       clipPathUnits="userSpaceOnUse">
          <path
   d="m 5801,10189 h 9773 v 9623 H 5801 Z"
   id="path4920" />

         </clipPath>
    <clipPath
       id="presentation_clip_path-9"
       clipPathUnits="userSpaceOnUse">
   <rect
   x="0"
   y="0"
   width="21000"
   height="29700"
   id="rect7012" />

  </clipPath>
    <clipPath
       id="presentation_clip_path_shrink-4"
       clipPathUnits="userSpaceOnUse">
   <rect
   x="21"
   y="29"
   width="20958"
   height="29641"
   id="rect7015" />

  </clipPath>
    <font
       id="EmbeddedFont_1-78"
       horiz-adv-x="2048"
       horiz-origin-x="0"
       horiz-origin-y="0"
       vert-origin-x="512"
       vert-origin-y="768"
       vert-adv-y="1024">
   <font-face
   font-family="Noto Serif CJK JP Black embedded"
   units-per-em="2048"
   font-weight="normal"
   font-style="normal"
   ascent="2362"
   descent="584"
   id="font-face7020" />

   <missing-glyph
   horiz-adv-x="2048"
   d="M 0,0 L 2047,0 2047,2047 0,2047 0,0 Z"
   id="missing-glyph7022" />

   <glyph
   unicode="金"
   horiz-adv-x="2033"
   d="M 399,520 L 381,512 C 424,389 455,240 444,92 678,-152 1004,311 399,520 Z M 1352,535 C 1315,356 1266,150 1231,27 L 1253,12 C 1382,98 1528,227 1649,358 1696,356 1724,373 1733,399 L 1352,535 Z M 1126,1565 C 1239,1214 1501,989 1790,831 1810,952 1896,1096 2030,1135 L 2032,1167 C 1743,1229 1346,1337 1157,1589 1233,1597 1262,1610 1270,1640 L 825,1757 C 750,1458 383,1012 33,770 L 45,750 C 205,809 371,895 526,997 L 541,946 840,946 840,653 195,653 211,596 840,596 840,-59 90,-59 107,-117 1911,-117 C 1942,-117 1966,-107 1972,-84 1862,12 1675,154 1675,154 L 1511,-59 1149,-59 1149,596 1812,596 C 1843,596 1866,606 1872,629 1772,717 1602,848 1602,848 L 1454,653 1149,653 1149,946 1450,946 C 1479,946 1501,956 1507,979 1413,1061 1260,1178 1260,1178 L 1122,1004 537,1004 C 782,1165 999,1364 1126,1565 Z"
   id="glyph7024" />

   <glyph
   unicode="火"
   horiz-adv-x="2033"
   d="M 457,1417 C 467,1202 358,1020 258,954 180,899 141,811 188,717 246,619 383,594 475,684 604,803 666,1055 475,1419 L 457,1417 Z M 1585,1399 C 1522,1241 1378,975 1249,784 1163,1004 1122,1276 1106,1614 L 1106,1645 C 1157,1653 1178,1671 1184,1704 L 774,1741 C 774,903 834,309 41,-166 L 57,-193 C 897,90 1055,532 1092,1122 1141,465 1284,31 1755,-195 1786,-37 1878,72 2021,102 L 2023,125 C 1626,246 1397,440 1264,750 1489,862 1708,1022 1860,1145 1911,1137 1931,1151 1939,1171 L 1585,1399 Z"
   id="glyph7026" />

   <glyph
   unicode="水"
   horiz-adv-x="2008"
   d="M 1643,1417 C 1583,1284 1462,1065 1346,895 1270,1036 1208,1208 1174,1417 L 1174,1657 C 1227,1665 1241,1683 1245,1712 L 870,1749 870,1104 655,1286 512,1137 86,1137 104,1079 528,1079 C 471,690 322,285 33,27 L 49,6 C 522,233 735,629 829,1036 848,1038 860,1040 870,1042 L 870,170 C 870,145 858,133 823,133 770,133 512,150 512,150 L 512,123 C 637,100 684,68 725,23 766,-25 780,-92 788,-190 1126,-162 1174,-53 1174,150 L 1174,1282 C 1255,608 1430,283 1737,10 1778,147 1868,254 1991,279 L 2001,301 C 1776,403 1544,559 1376,838 1571,940 1761,1073 1892,1176 1944,1169 1964,1182 1974,1202 L 1643,1417 Z"
   id="glyph7028" />

   <glyph
   unicode="木"
   horiz-adv-x="2008"
   d="M 1686,1475 L 1520,1264 1171,1264 1165,1262 1165,1653 C 1223,1661 1237,1683 1241,1712 L 858,1749 858,1264 80,1264 96,1206 725,1206 C 621,788 383,326 49,37 L 68,18 C 412,193 674,430 858,715 L 858,-195 915,-195 C 1032,-195 1165,-119 1165,-90 L 1165,1171 C 1260,639 1425,274 1731,39 1778,184 1876,283 1993,305 L 2001,330 C 1667,477 1350,782 1192,1206 L 1925,1206 C 1956,1206 1980,1217 1987,1239 1874,1333 1686,1475 1686,1475 Z"
   id="glyph7030" />

   <glyph
   unicode="月"
   horiz-adv-x="1678"
   d="M 1343,1497 L 1343,1100 758,1100 758,1497 1343,1497 Z M 457,1554 L 457,911 C 457,506 418,121 84,-184 L 98,-199 C 541,-10 688,276 735,571 L 1343,571 1343,178 C 1343,150 1333,133 1298,133 1245,133 985,147 985,147 L 985,123 C 1110,98 1159,66 1200,20 1239,-25 1253,-96 1262,-197 1604,-166 1651,-55 1651,143 L 1651,1450 C 1694,1458 1718,1477 1731,1493 L 1458,1708 1323,1554 803,1554 457,1669 457,1554 Z M 1343,1042 L 1343,629 743,629 C 756,725 758,819 758,913 L 758,1042 1343,1042 Z"
   id="glyph7032" />

   <glyph
   unicode="日"
   horiz-adv-x="1474"
   d="M 1405,762 L 1405,86 672,86 672,762 1405,762 Z M 1405,819 L 672,819 672,1466 1405,1466 1405,819 Z M 358,1524 L 358,-184 410,-184 C 545,-184 672,-109 672,-70 L 672,29 1405,29 1405,-164 1456,-164 C 1575,-164 1724,-92 1729,-70 L 1729,1417 C 1769,1427 1792,1444 1806,1462 L 1530,1683 1384,1524 690,1524 358,1655 358,1524 Z"
   id="glyph7034" />

   <glyph
   unicode="土"
   horiz-adv-x="1982"
   d="M 182,995 L 199,938 852,938 852,-27 51,-27 68,-84 1939,-84 C 1970,-84 1995,-74 2001,-51 1884,47 1692,193 1692,193 L 1520,-27 1169,-27 1169,938 1825,938 C 1855,938 1880,948 1884,971 1774,1067 1587,1206 1587,1206 L 1421,995 1169,995 1169,1655 C 1227,1663 1241,1683 1245,1716 L 852,1751 852,995 182,995 Z"
   id="glyph7036" />

   <glyph
   unicode="©"
   horiz-adv-x="1626"
   d="M 868,-41 C 1292,-41 1663,274 1663,766 1663,1260 1292,1571 868,1571 440,1571 70,1260 70,766 70,274 440,-41 868,-41 Z M 868,37 C 487,37 170,322 170,766 170,1210 487,1493 868,1493 1249,1493 1567,1208 1567,766 1567,326 1249,37 868,37 Z M 909,285 C 1026,285 1118,315 1194,360 L 1200,598 1116,598 1055,363 C 1024,354 993,350 963,350 799,350 668,494 668,768 668,1042 797,1190 965,1190 993,1190 1020,1188 1047,1180 L 1110,940 1190,940 1186,1184 C 1106,1227 1032,1253 920,1253 659,1253 434,1083 434,766 434,455 645,285 909,285 Z"
   id="glyph7038" />

   <glyph
   unicode="y"
   horiz-adv-x="1271"
   d="M 797,1057 L 999,1036 862,610 731,250 446,1038 610,1057 610,1118 -14,1118 -14,1057 90,1047 582,-127 C 522,-264 467,-356 395,-420 L 363,-377 C 311,-311 252,-262 170,-262 90,-262 10,-303 -6,-395 0,-494 107,-555 221,-555 395,-555 530,-442 666,-84 L 1083,1038 1219,1057 1219,1118 797,1118 797,1057 Z"
   id="glyph7040" />

   <glyph
   unicode="t"
   horiz-adv-x="814"
   d="M 512,-35 C 670,-35 772,25 834,135 L 801,168 C 745,123 711,102 659,102 578,102 526,150 526,260 L 526,1034 778,1034 778,1118 526,1118 528,1450 317,1450 211,1118 29,1100 29,1034 195,1034 195,510 C 195,426 193,367 193,285 193,59 303,-35 512,-35 Z"
   id="glyph7042" />

   <glyph
   unicode="s"
   horiz-adv-x="941"
   d="M 487,-35 C 799,-35 987,104 987,344 987,512 893,625 678,690 L 557,727 C 397,774 356,836 356,909 356,1012 438,1075 565,1075 625,1075 668,1065 711,1044 L 788,803 905,803 920,1061 C 799,1120 694,1153 557,1153 256,1153 88,997 88,782 88,608 197,502 381,446 L 500,408 C 664,360 702,299 702,213 702,100 616,45 461,45 395,45 344,55 291,76 L 229,346 98,346 82,68 C 203,0 328,-35 487,-35 Z"
   id="glyph7044" />

   <glyph
   unicode="p"
   horiz-adv-x="1296"
   d="M 840,-35 C 1112,-35 1339,193 1339,565 1339,944 1141,1153 889,1153 754,1153 633,1106 539,999 L 522,1131 496,1151 55,1022 55,973 207,956 C 211,858 213,788 213,655 L 213,-14 209,-457 72,-471 72,-530 702,-530 702,-471 545,-453 541,-12 541,109 C 625,10 725,-35 840,-35 Z M 545,938 C 612,999 666,1012 727,1012 889,1012 983,897 983,563 983,221 875,111 715,111 647,111 596,121 545,162 L 545,938 Z"
   id="glyph7046" />

   <glyph
   unicode="o"
   horiz-adv-x="1195"
   d="M 651,-35 C 1001,-35 1233,199 1233,565 1233,932 975,1153 651,1153 330,1153 72,928 72,565 72,205 299,-35 651,-35 Z M 651,37 C 506,37 424,205 424,561 424,920 506,1081 651,1081 799,1081 879,920 879,561 879,205 799,37 651,37 Z"
   id="glyph7048" />

   <glyph
   unicode="k"
   horiz-adv-x="1347"
   d="M 780,1057 L 985,1032 729,784 545,606 545,1343 553,1673 522,1692 63,1604 63,1548 213,1536 213,487 209,76 72,63 72,0 678,0 678,63 549,76 C 547,193 545,383 545,504 L 545,518 635,602 926,0 1374,0 1374,63 1241,76 866,811 1114,1036 1313,1057 1313,1118 780,1118 780,1057 Z"
   id="glyph7050" />

   <glyph
   unicode="h"
   horiz-adv-x="1347"
   d="M 913,0 L 1380,0 1380,63 1257,74 1253,487 1253,754 C 1253,1032 1120,1153 920,1153 768,1153 659,1092 539,948 L 539,1343 545,1673 518,1692 63,1604 63,1548 213,1536 213,487 209,76 74,63 74,0 666,0 666,63 549,74 C 547,195 545,373 545,487 L 545,887 C 627,961 707,999 772,999 862,999 922,942 922,784 L 922,487 C 922,369 920,195 918,76 L 786,63 786,0 913,0 Z"
   id="glyph7052" />

   <glyph
   unicode=":"
   horiz-adv-x="408"
   d="M 348,-35 C 455,-35 537,49 537,152 537,256 455,342 348,342 242,342 160,256 160,152 160,49 242,-35 348,-35 Z M 348,754 C 455,754 537,838 537,940 537,1044 455,1131 348,1131 242,1131 160,1044 160,940 160,838 242,754 348,754 Z"
   id="glyph7054" />

   <glyph
   unicode="6"
   horiz-adv-x="1119"
   d="M 649,-35 C 977,-35 1174,184 1174,473 1174,745 1026,936 758,936 627,936 514,893 428,811 477,1159 705,1423 1092,1513 L 1081,1565 C 487,1511 82,1096 82,592 82,197 303,-35 649,-35 Z M 420,741 C 485,799 557,819 629,819 774,819 850,690 850,442 850,156 764,37 651,37 512,37 418,223 418,662 L 420,741 Z"
   id="glyph7056" />

   <glyph
   unicode="1"
   horiz-adv-x="839"
   d="M 98,0 L 889,-6 889,55 676,102 C 672,231 670,360 670,485 L 670,1200 678,1534 647,1554 94,1430 94,1356 334,1384 334,485 330,100 98,63 98,0 Z"
   id="glyph7058" />

   <glyph
   unicode="0"
   horiz-adv-x="1119"
   d="M 627,-35 C 909,-35 1167,209 1167,768 1167,1323 909,1565 627,1565 342,1565 88,1323 88,768 88,209 342,-35 627,-35 Z M 627,37 C 504,37 401,193 401,768 401,1339 504,1493 627,1493 748,1493 854,1337 854,768 854,195 748,37 627,37 Z"
   id="glyph7060" />

   <glyph
   unicode="/"
   horiz-adv-x="788"
   d="M 53,-371 L 197,-371 817,1647 676,1647 53,-371 Z"
   id="glyph7062" />

   <glyph
   unicode="."
   horiz-adv-x="408"
   d="M 348,-35 C 455,-35 537,49 537,152 537,256 455,342 348,342 242,342 160,256 160,152 160,49 242,-35 348,-35 Z"
   id="glyph7064" />

  </font>
    <font
       id="EmbeddedFont_2-4"
       horiz-adv-x="2048"
       horiz-origin-x="0"
       horiz-origin-y="0"
       vert-origin-x="512"
       vert-origin-y="768"
       vert-adv-y="1024">
   <font-face
   font-family="Noto Serif CJK JP Black embedded"
   units-per-em="2048"
   font-weight="bold"
   font-style="normal"
   ascent="2362"
   descent="584"
   id="font-face7069" />

   <missing-glyph
   horiz-adv-x="2048"
   d="M 0,0 L 2047,0 2047,2047 0,2047 0,0 Z"
   id="missing-glyph7071" />

   <glyph
   unicode="年"
   horiz-adv-x="1982"
   d="M 537,1776 C 428,1425 229,1071 53,858 L 72,842 C 186,901 295,969 397,1053 L 397,377 53,377 70,319 1026,319 1026,-193 1087,-193 C 1255,-193 1350,-129 1352,-111 L 1352,319 1937,319 C 1968,319 1993,330 1999,352 1886,444 1704,580 1704,580 L 1542,377 1352,377 1352,887 1837,887 C 1868,887 1890,897 1896,920 1792,1006 1620,1133 1620,1133 L 1468,944 1352,944 1352,1358 1909,1358 C 1939,1358 1964,1368 1968,1391 1853,1487 1675,1616 1675,1616 L 1513,1415 741,1415 C 780,1468 817,1526 854,1587 903,1583 932,1599 942,1626 L 537,1776 Z M 1026,377 L 713,377 713,887 1026,887 1026,377 Z M 1026,944 L 741,944 412,1065 C 514,1147 608,1245 698,1358 L 1026,1358 1026,944 Z"
   id="glyph7073" />

   <glyph
   unicode="9"
   horiz-adv-x="1119"
   d="M 219,-41 C 788,63 1171,422 1171,911 1171,1321 971,1565 612,1565 326,1565 80,1391 80,1047 80,758 272,594 539,594 655,594 750,627 815,676 754,340 565,141 207,18 L 219,-41 Z M 825,739 C 778,705 731,690 668,690 506,690 406,840 406,1092 406,1374 504,1495 621,1495 748,1495 838,1362 838,956 838,879 834,807 825,739 Z"
   id="glyph7075" />

   <glyph
   unicode="8"
   horiz-adv-x="1067"
   d="M 596,-35 C 956,-35 1149,139 1149,403 1149,598 1036,743 791,860 1012,954 1098,1075 1098,1210 1098,1399 954,1565 639,1565 352,1565 139,1401 139,1147 139,956 242,803 446,700 225,623 109,498 109,322 109,117 264,-35 596,-35 Z M 743,883 C 469,1004 416,1133 416,1260 416,1403 518,1493 631,1493 762,1493 838,1380 838,1221 838,1085 811,983 743,883 Z M 496,678 C 772,557 852,432 852,281 852,127 772,37 623,37 469,37 379,139 379,360 379,494 412,584 496,678 Z"
   id="glyph7077" />

   <glyph
   unicode="7"
   horiz-adv-x="1017"
   d="M 299,0 L 571,0 1104,1372 1104,1530 123,1530 123,1276 971,1276 279,20 299,0 Z"
   id="glyph7079" />

   <glyph
   unicode="6"
   horiz-adv-x="1119"
   d="M 649,-35 C 977,-35 1174,184 1174,473 1174,745 1026,936 758,936 627,936 514,893 428,811 477,1159 705,1423 1092,1513 L 1081,1565 C 487,1511 82,1096 82,592 82,197 303,-35 649,-35 Z M 420,741 C 485,799 557,819 629,819 774,819 850,690 850,442 850,156 764,37 651,37 512,37 418,223 418,662 L 420,741 Z"
   id="glyph7081" />

   <glyph
   unicode="5"
   horiz-adv-x="1118"
   d="M 551,-35 C 901,-35 1155,133 1155,449 1155,754 942,913 596,913 498,913 408,903 319,877 L 348,1276 1102,1276 1102,1530 264,1530 215,809 276,768 C 348,791 416,803 494,803 684,803 805,670 805,434 805,174 680,37 492,37 446,37 416,41 383,53 L 354,256 C 342,377 293,422 209,422 152,422 98,391 76,330 92,107 264,-35 551,-35 Z"
   id="glyph7083" />

   <glyph
   unicode="4"
   horiz-adv-x="1169"
   d="M 682,-31 L 975,-31 975,346 1198,346 1198,559 975,559 975,1556 745,1556 68,518 68,346 682,346 682,-31 Z M 178,559 L 451,979 682,1337 682,559 178,559 Z"
   id="glyph7085" />

   <glyph
   unicode="3"
   horiz-adv-x="1093"
   d="M 580,-35 C 930,-35 1145,137 1145,387 1145,602 1030,758 707,807 991,864 1098,1014 1098,1202 1098,1413 944,1565 621,1565 371,1565 156,1460 150,1214 172,1176 213,1151 264,1151 336,1151 399,1186 418,1290 L 457,1489 C 481,1493 504,1495 524,1495 680,1495 772,1393 772,1190 772,946 651,836 471,836 L 401,836 401,756 481,756 C 690,756 801,627 801,385 801,156 684,37 473,37 444,37 420,39 397,45 L 365,246 C 346,383 295,424 213,424 160,424 107,395 84,330 102,100 268,-35 580,-35 Z"
   id="glyph7087" />

   <glyph
   unicode="2"
   horiz-adv-x="1067"
   d="M 121,0 L 1149,0 1149,252 287,252 C 383,336 477,414 543,467 924,766 1112,926 1112,1147 1112,1391 963,1565 639,1565 367,1565 129,1436 117,1192 139,1139 190,1104 250,1104 313,1104 381,1137 403,1276 L 444,1487 C 471,1493 498,1495 524,1495 682,1495 778,1376 778,1167 778,944 678,809 455,557 354,442 240,313 121,184 L 121,0 Z"
   id="glyph7089" />

   <glyph
   unicode="1"
   horiz-adv-x="839"
   d="M 98,0 L 889,-6 889,55 676,102 C 672,231 670,360 670,485 L 670,1200 678,1534 647,1554 94,1430 94,1356 334,1384 334,485 330,100 98,63 98,0 Z"
   id="glyph7091" />

   <glyph
   unicode="0"
   horiz-adv-x="1119"
   d="M 627,-35 C 909,-35 1167,209 1167,768 1167,1323 909,1565 627,1565 342,1565 88,1323 88,768 88,209 342,-35 627,-35 Z M 627,37 C 504,37 401,193 401,768 401,1339 504,1493 627,1493 748,1493 854,1337 854,768 854,195 748,37 627,37 Z"
   id="glyph7093" />

  </font>
    <g
       ooo:slide="id1"
       ooo:id-list="id3"
       id="g7098" />
    <g
       id="bullet-char-template-57356-50"
       transform="matrix(4.8828125e-4,0,0,-4.8828125e-4,0,0)">
   <path
   d="M 580,1141 1163,571 580,0 -4,571 Z"
   id="path7102" />

  </g>
    <g
       id="bullet-char-template-57354-36"
       transform="matrix(4.8828125e-4,0,0,-4.8828125e-4,0,0)">
   <path
   d="M 8,1128 H 1137 V 0 H 8 Z"
   id="path7105" />

  </g>
    <g
       id="bullet-char-template-10146-1"
       transform="matrix(4.8828125e-4,0,0,-4.8828125e-4,0,0)">
   <path
   d="M 174,0 602,739 174,1481 1456,739 Z M 1358,739 309,1346 659,739 Z"
   id="path7108" />

  </g>
    <g
       id="bullet-char-template-10132-0"
       transform="matrix(4.8828125e-4,0,0,-4.8828125e-4,0,0)">
   <path
   d="M 2015,739 1276,0 H 717 l 543,543 H 174 v 393 h 1086 l -543,545 h 557 z"
   id="path7111" />

  </g>
    <g
       id="bullet-char-template-10007-6"
       transform="matrix(4.8828125e-4,0,0,-4.8828125e-4,0,0)">
   <path
   d="m 0,-2 c -7,16 -16,29 -25,39 l 381,530 c -94,256 -141,385 -141,387 0,25 13,38 40,38 9,0 21,-2 34,-5 21,4 42,12 65,25 l 27,-13 111,-251 280,301 64,-25 24,25 c 21,-10 41,-24 62,-43 C 886,937 835,863 770,784 769,783 710,716 594,584 L 774,223 c 0,-27 -21,-55 -63,-84 l 16,-20 C 717,90 699,76 672,76 641,76 570,178 457,381 L 164,-76 c -22,-34 -53,-51 -92,-51 -42,0 -63,17 -64,51 -7,9 -10,24 -10,44 0,9 1,19 2,30 z"
   id="path7114" />

  </g>
    <g
       id="bullet-char-template-10004-3"
       transform="matrix(4.8828125e-4,0,0,-4.8828125e-4,0,0)">
   <path
   d="M 285,-33 C 182,-33 111,30 74,156 52,228 41,333 41,471 c 0,78 14,145 41,201 34,71 87,106 158,106 53,0 88,-31 106,-94 l 23,-176 c 8,-64 28,-97 59,-98 l 735,706 c 11,11 33,17 66,17 42,0 63,-15 63,-46 V 965 c 0,-36 -10,-64 -30,-84 L 442,47 C 390,-6 338,-33 285,-33 Z"
   id="path7117" />

  </g>
    <g
       id="bullet-char-template-9679-2"
       transform="matrix(4.8828125e-4,0,0,-4.8828125e-4,0,0)">
   <path
   d="M 813,0 C 632,0 489,54 383,161 276,268 223,411 223,592 c 0,181 53,324 160,431 106,107 249,161 430,161 179,0 323,-54 432,-161 108,-107 162,-251 162,-431 0,-180 -54,-324 -162,-431 C 1136,54 992,0 813,0 Z"
   id="path7120" />

  </g>
    <g
       id="bullet-char-template-8226-06"
       transform="matrix(4.8828125e-4,0,0,-4.8828125e-4,0,0)">
   <path
   d="m 346,457 c -73,0 -137,26 -191,78 -54,51 -81,114 -81,188 0,73 27,136 81,188 54,52 118,78 191,78 73,0 134,-26 185,-79 51,-51 77,-114 77,-187 0,-75 -25,-137 -76,-188 -50,-52 -112,-78 -186,-78 z"
   id="path7123" />

  </g>
    <g
       id="bullet-char-template-8211-1"
       transform="matrix(4.8828125e-4,0,0,-4.8828125e-4,0,0)">
   <path
   d="M -4,459 H 1135 V 606 H -4 Z"
   id="path7126" />

  </g>
    <g
       id="bullet-char-template-61548-5"
       transform="matrix(4.8828125e-4,0,0,-4.8828125e-4,0,0)">
   <path
   d="m 173,740 c 0,163 58,303 173,419 116,115 255,173 419,173 163,0 302,-58 418,-173 116,-116 174,-256 174,-419 0,-163 -58,-303 -174,-418 C 1067,206 928,148 765,148 601,148 462,206 346,322 231,437 173,577 173,740 Z"
   id="path7129" />

  </g>
    <clipPath
       id="clip_path_1-5"
       clipPathUnits="userSpaceOnUse">
          <path
   d="m 5801,9432 h 9773 V 20569 H 5801 Z"
   id="path7141" />

         </clipPath>
    <clipPath
       id="clip_path_2-4"
       clipPathUnits="userSpaceOnUse">
          <path
   d="m 8839,9728 h 2515 v 1092 H 8839 Z"
   id="path7484" />

         </clipPath>
    <clipPath
       id="clip_path_3-7"
       clipPathUnits="userSpaceOnUse">
          <path
   d="m 5801,9432 h 9773 V 20569 H 5801 Z"
   id="path7509" />

         </clipPath>
    <clipPath
       id="clip_path_4-6"
       clipPathUnits="userSpaceOnUse">
          <path
   d="m 5801,9432 h 9773 V 20569 H 5801 Z"
   id="path7516" />

         </clipPath>
    <clipPath
       id="clip_path_5-5"
       clipPathUnits="userSpaceOnUse">
          <path
   d="m 5801,9432 h 9773 V 20569 H 5801 Z"
   id="path7523" />

         </clipPath>
    <clipPath
       id="presentation_clip_path-6"
       clipPathUnits="userSpaceOnUse">
   <rect
   x="0"
   y="0"
   width="21000"
   height="29700"
   id="rect10330" />

  </clipPath>
    <clipPath
       id="presentation_clip_path_shrink-9"
       clipPathUnits="userSpaceOnUse">
   <rect
   x="21"
   y="29"
   width="20958"
   height="29641"
   id="rect10333" />

  </clipPath>
    <font
       id="EmbeddedFont_1-3"
       horiz-adv-x="2048"
       horiz-origin-x="0"
       horiz-origin-y="0"
       vert-origin-x="512"
       vert-origin-y="768"
       vert-adv-y="1024">
   <font-face
   font-family="Noto Serif CJK JP embedded"
   units-per-em="2048"
   font-weight="normal"
   font-style="normal"
   ascent="2362"
   descent="584"
   id="font-face10338" />

   <missing-glyph
   horiz-adv-x="2048"
   d="M 0,0 L 2047,0 2047,2047 0,2047 0,0 Z"
   id="missing-glyph10340" />

   <glyph
   unicode="記"
   horiz-adv-x="1906"
   d="M 174,1575 L 190,1516 801,1516 C 829,1516 848,1526 854,1548 791,1606 690,1686 690,1686 L 602,1575 174,1575 Z M 174,1051 L 190,991 803,991 C 831,991 850,1001 856,1024 797,1079 705,1153 705,1153 L 623,1051 174,1051 Z M 174,791 L 190,731 803,731 C 831,731 850,741 856,762 797,819 705,893 705,893 L 623,791 174,791 Z M 72,1311 L 86,1251 922,1251 C 950,1251 969,1262 975,1284 911,1343 807,1425 807,1425 L 717,1311 72,1311 Z M 659,473 L 659,43 319,43 319,473 659,473 Z M 195,532 L 195,-160 211,-160 C 264,-160 319,-129 319,-117 L 319,-16 659,-16 659,-115 680,-115 C 723,-115 784,-82 786,-68 L 786,451 C 827,459 860,475 872,489 L 713,612 639,532 330,532 195,596 195,532 Z M 1014,909 L 1014,45 C 1014,-70 1055,-102 1235,-102 L 1499,-102 C 1870,-102 1946,-82 1946,-16 1946,10 1931,25 1882,41 L 1878,360 1851,360 C 1825,219 1800,92 1784,53 1776,33 1765,25 1737,23 1702,18 1616,16 1503,16 L 1253,16 C 1159,16 1145,31 1145,72 L 1145,850 1669,850 1669,754 1690,754 C 1735,754 1800,788 1802,801 L 1802,1473 C 1843,1481 1876,1497 1890,1513 L 1724,1640 1651,1559 991,1559 1010,1499 1669,1499 1669,909 1171,909 1014,979 1014,909 Z"
   id="glyph10342" />

   <glyph
   unicode="法"
   horiz-adv-x="2033"
   d="M 256,1688 L 236,1669 C 330,1606 440,1493 473,1397 627,1315 705,1620 256,1688 Z M 96,1227 L 78,1206 C 168,1153 276,1049 311,961 459,879 532,1176 96,1227 Z M 215,412 C 195,412 123,412 123,412 L 123,369 C 168,365 199,358 225,340 270,309 283,152 254,-57 258,-123 283,-160 322,-160 389,-160 430,-107 432,-18 440,147 383,242 381,332 381,383 395,446 414,510 444,610 625,1098 715,1358 L 676,1368 C 305,528 305,528 266,455 248,414 240,412 215,412 Z M 578,70 L 662,-123 C 682,-119 702,-102 715,-78 1151,-8 1475,51 1718,102 1765,25 1804,-51 1827,-117 1999,-240 2091,135 1444,514 L 1419,498 C 1503,401 1608,272 1692,145 1407,123 1137,102 924,88 1059,256 1204,508 1305,725 L 1929,725 C 1958,725 1974,735 1980,758 1915,821 1804,909 1804,909 L 1706,784 1319,784 1319,1198 1853,1198 C 1880,1198 1901,1208 1907,1231 1839,1294 1731,1380 1731,1380 L 1634,1260 1319,1260 1319,1618 C 1368,1626 1387,1647 1393,1675 L 1182,1698 1182,1260 713,1260 729,1198 1182,1198 1182,784 604,784 621,725 1120,725 C 1059,526 954,260 860,84 L 578,70 Z"
   id="glyph10344" />

   <glyph
   unicode="替"
   horiz-adv-x="1906"
   d="M 107,1204 L 123,1145 475,1145 C 430,946 324,786 78,659 L 104,625 C 369,733 502,872 569,1042 666,979 778,875 815,784 954,715 1016,987 582,1075 L 602,1145 954,1145 C 981,1145 1001,1155 1006,1176 942,1235 842,1315 842,1315 L 754,1204 614,1204 C 627,1270 633,1337 637,1409 L 940,1409 C 969,1409 987,1419 993,1440 930,1499 834,1577 834,1577 L 748,1468 639,1468 645,1640 C 688,1647 707,1667 711,1694 L 512,1712 510,1468 127,1468 143,1409 508,1409 C 504,1337 498,1268 487,1204 L 107,1204 Z M 1458,289 L 1458,31 600,31 600,289 1458,289 Z M 1458,348 L 600,348 600,602 1458,602 1458,348 Z M 467,662 L 467,-156 487,-156 C 545,-156 600,-125 600,-111 L 600,-31 1458,-31 1458,-143 1479,-143 C 1522,-143 1589,-113 1591,-98 L 1591,575 C 1632,584 1665,600 1679,616 L 1511,743 1438,662 612,662 467,727 467,662 Z M 1014,1204 L 1028,1145 1303,1145 C 1255,977 1153,842 934,735 L 961,700 C 1245,809 1372,952 1430,1135 1509,926 1659,770 1853,672 1872,733 1909,770 1958,780 L 1960,799 C 1759,862 1575,981 1475,1145 L 1901,1145 C 1927,1145 1948,1155 1954,1176 1888,1237 1784,1319 1784,1319 L 1692,1204 1448,1204 C 1462,1268 1468,1337 1475,1409 L 1866,1409 C 1894,1409 1913,1419 1919,1440 1855,1501 1753,1581 1753,1581 L 1665,1468 1477,1468 1483,1640 C 1526,1647 1544,1669 1548,1694 L 1346,1712 1343,1468 1030,1468 1047,1409 1341,1409 C 1337,1335 1331,1268 1317,1204 L 1014,1204 Z"
   id="glyph10346" />

   <glyph
   unicode="日"
   horiz-adv-x="1348"
   d="M 1505,758 L 1505,98 549,98 549,758 1505,758 Z M 1505,819 L 549,819 549,1454 1505,1454 1505,819 Z M 414,1513 L 414,-143 438,-143 C 500,-143 549,-109 549,-88 L 549,39 1505,39 1505,-133 1526,-133 C 1575,-133 1643,-96 1645,-82 L 1645,1427 C 1686,1436 1718,1452 1733,1468 L 1563,1602 1485,1513 563,1513 414,1583 414,1513 Z"
   id="glyph10348" />

   <glyph
   unicode="振"
   horiz-adv-x="1982"
   d="M 1020,1223 L 1036,1161 1802,1161 C 1831,1161 1847,1171 1853,1194 1790,1255 1688,1337 1688,1337 L 1595,1223 1020,1223 Z M 1804,766 C 1753,680 1638,532 1542,426 1475,547 1425,682 1389,825 L 1919,825 C 1948,825 1966,836 1972,858 1905,920 1796,1008 1796,1008 L 1704,887 915,887 918,1026 918,1497 1905,1497 C 1933,1497 1952,1507 1958,1530 1890,1591 1782,1679 1782,1679 L 1688,1559 942,1559 786,1624 786,1024 C 786,631 762,213 543,-123 L 575,-145 C 838,127 899,500 913,825 L 1069,825 1069,70 C 965,43 879,23 823,12 L 930,-150 C 948,-141 963,-127 971,-98 1223,8 1409,96 1536,158 L 1528,190 1196,102 1196,825 1348,825 C 1423,363 1571,31 1882,-158 1901,-86 1948,-41 1999,-31 L 2003,-10 C 1817,66 1669,211 1561,393 1686,467 1825,569 1894,633 1935,619 1968,635 1976,653 L 1804,766 Z M 51,647 L 125,477 C 145,483 162,502 168,528 L 371,631 371,49 C 371,18 360,8 326,8 291,8 113,20 113,20 L 113,-12 C 193,-23 236,-37 264,-59 289,-82 299,-119 305,-160 481,-139 500,-74 500,37 L 500,698 760,840 750,868 500,784 500,1188 727,1188 C 756,1188 772,1198 778,1221 723,1282 629,1364 629,1364 L 545,1247 500,1247 500,1638 C 551,1645 571,1665 575,1694 L 371,1716 371,1247 84,1247 100,1188 371,1188 371,743 C 231,696 115,662 51,647 Z"
   id="glyph10350" />

   <glyph
   unicode="憲"
   horiz-adv-x="2008"
   d="M 1516,322 L 1495,303 C 1622,213 1784,55 1831,-76 1993,-168 2066,172 1516,322 Z M 616,342 L 616,-2 C 616,-102 647,-129 825,-129 L 1100,-129 C 1477,-129 1544,-107 1544,-43 1544,-20 1530,-6 1483,8 L 1477,215 1452,215 C 1430,123 1411,45 1395,14 1384,-4 1376,-8 1348,-10 1317,-12 1223,-14 1106,-14 L 844,-14 C 754,-14 745,-8 745,20 L 745,272 C 780,276 799,297 803,322 L 616,342 Z M 406,309 C 383,168 254,70 156,33 115,10 84,-27 100,-66 121,-113 195,-111 252,-80 344,-35 465,88 442,307 L 406,309 Z M 885,381 L 866,360 C 963,303 1087,195 1135,109 1276,47 1327,322 885,381 Z M 346,1640 C 348,1513 264,1407 180,1370 139,1348 113,1311 129,1274 150,1229 217,1233 268,1264 326,1296 385,1368 395,1483 L 1722,1483 C 1702,1425 1673,1356 1653,1309 1593,1366 1505,1436 1505,1436 L 1419,1329 1087,1329 1087,1382 C 1126,1389 1143,1405 1147,1427 L 954,1448 954,1329 387,1329 403,1272 954,1272 954,1145 391,1145 408,1085 954,1085 954,950 190,950 209,891 1833,891 C 1860,891 1880,901 1886,924 1823,983 1720,1061 1720,1061 L 1634,950 1087,950 1087,1085 1606,1085 C 1634,1085 1653,1096 1659,1118 1597,1174 1503,1247 1503,1247 L 1419,1145 1087,1145 1087,1272 1608,1272 C 1632,1272 1651,1278 1655,1294 L 1675,1284 C 1739,1327 1833,1407 1886,1458 1925,1460 1950,1464 1964,1479 L 1808,1632 1720,1544 1087,1544 1087,1634 C 1139,1643 1161,1663 1165,1692 L 954,1712 954,1544 397,1544 C 395,1575 391,1606 383,1640 L 346,1640 Z M 371,776 L 371,346 389,346 C 442,346 502,373 502,385 L 502,434 1542,434 1542,358 1563,358 C 1606,358 1673,389 1673,403 L 1673,698 C 1708,705 1737,721 1749,735 L 1593,850 1526,776 512,776 371,840 371,776 Z M 502,494 L 502,717 762,717 762,494 502,494 Z M 1542,717 L 1542,494 1276,494 1276,717 1542,717 Z M 887,717 L 1149,717 1149,494 887,494 887,717 Z"
   id="glyph10352" />

   <glyph
   unicode="念"
   horiz-adv-x="2058"
   d="M 1044,1616 C 1208,1348 1509,1131 1870,989 1884,1042 1923,1094 1987,1112 L 1991,1145 C 1616,1237 1280,1419 1079,1638 1137,1643 1157,1655 1165,1677 L 934,1737 C 793,1464 438,1157 61,985 L 74,952 C 494,1094 858,1368 1044,1616 Z M 680,1204 L 696,1145 1292,1145 C 1319,1145 1339,1153 1346,1176 1284,1235 1182,1313 1182,1313 L 1094,1204 680,1204 Z M 836,637 L 811,621 C 913,532 1044,379 1079,260 1225,168 1313,475 836,637 Z M 614,524 L 614,27 C 614,-78 649,-107 829,-107 L 1102,-107 C 1477,-107 1546,-86 1546,-23 1546,4 1532,18 1485,33 L 1479,283 1452,283 C 1427,172 1407,76 1391,43 1380,23 1372,18 1343,16 1311,12 1221,12 1106,12 L 848,12 C 758,12 748,18 748,51 L 748,455 C 786,461 805,479 807,502 L 614,524 Z M 371,489 C 369,313 260,170 160,117 117,92 88,49 109,8 135,-39 211,-31 266,8 358,68 467,225 406,489 L 371,489 Z M 1509,508 L 1487,492 C 1622,375 1786,180 1823,23 1987,-92 2089,276 1509,508 Z M 406,967 L 424,905 1362,905 C 1309,801 1231,659 1161,549 1217,520 1257,516 1294,522 1362,633 1452,791 1499,881 1546,883 1581,893 1597,907 L 1448,1042 1374,967 406,967 Z"
   id="glyph10354" />

   <glyph
   unicode="休"
   horiz-adv-x="1982"
   d="M 1188,1688 L 1188,1198 625,1198 641,1139 1102,1139 C 1001,774 813,414 547,158 L 575,131 C 854,342 1059,621 1188,942 L 1188,-152 1214,-152 C 1266,-152 1321,-119 1321,-98 L 1321,1110 C 1419,727 1622,371 1882,162 1894,221 1935,266 1993,287 L 1999,309 C 1729,479 1470,788 1362,1139 L 1901,1139 C 1929,1139 1948,1149 1954,1169 1884,1235 1774,1321 1774,1321 L 1675,1198 1321,1198 1321,1608 C 1374,1616 1391,1636 1395,1665 L 1188,1688 Z M 537,1716 C 432,1319 244,924 61,674 L 90,653 C 193,752 291,872 379,1012 L 379,-156 403,-156 C 457,-156 510,-123 512,-113 L 512,1071 C 549,1077 569,1090 578,1108 L 463,1151 C 543,1292 612,1446 672,1608 717,1606 743,1624 752,1649 L 537,1716 Z"
   id="glyph10356" />

   <glyph
   unicode="り"
   horiz-adv-x="991"
   d="M 573,1632 C 659,1534 690,1485 690,1378 690,1268 592,872 592,651 592,598 602,504 623,461 641,420 666,410 694,410 727,410 752,434 752,475 752,543 739,602 739,684 739,827 780,948 846,1075 918,1212 1047,1305 1143,1305 1286,1305 1378,1106 1378,772 1378,406 1257,94 762,-104 L 784,-152 C 1333,-8 1522,334 1522,758 1522,1122 1409,1387 1163,1387 1030,1387 887,1264 791,1094 768,1053 752,1055 760,1098 774,1178 786,1239 807,1305 819,1354 834,1382 834,1425 834,1470 774,1563 698,1614 670,1634 641,1647 600,1659 L 573,1632 Z"
   id="glyph10358" />

   <glyph
   unicode="も"
   horiz-adv-x="1296"
   d="M 438,1356 L 403,1335 C 432,1237 469,1178 545,1128 598,1094 641,1079 694,1063 539,985 416,866 416,754 416,635 526,541 719,500 711,434 705,371 705,319 705,70 852,-98 1131,-98 1487,-98 1655,133 1655,330 1655,553 1536,741 1219,899 L 1190,864 C 1380,723 1518,594 1518,369 1518,197 1389,20 1118,20 926,20 793,115 793,319 793,365 799,422 809,485 907,473 993,475 1044,479 1120,485 1145,508 1145,543 1145,584 1112,606 1063,610 1020,614 936,608 834,614 862,752 901,897 932,999 983,995 1034,993 1063,995 1114,997 1141,1016 1141,1049 1141,1083 1114,1118 1049,1124 L 973,1128 C 1006,1229 1030,1294 1055,1346 1079,1397 1108,1409 1108,1448 1108,1503 985,1604 889,1604 848,1604 811,1599 776,1595 L 774,1548 C 807,1542 850,1534 883,1518 920,1501 934,1489 930,1438 924,1382 889,1266 852,1137 778,1143 702,1155 625,1188 543,1221 492,1284 438,1356 Z M 737,623 C 545,651 498,715 498,776 498,875 680,993 817,1004 793,901 760,760 737,623 Z"
   id="glyph10360" />

   <glyph
   unicode="み"
   horiz-adv-x="1779"
   d="M 1442,950 L 1440,911 C 1473,903 1495,895 1518,883 1544,866 1550,854 1550,819 1554,774 1550,707 1532,629 1372,705 1137,780 868,780 L 858,780 862,788 C 946,936 1116,1194 1182,1272 1227,1327 1300,1348 1300,1391 1300,1438 1184,1520 1128,1520 1096,1520 1085,1487 1014,1464 940,1442 735,1382 651,1382 592,1382 571,1434 541,1489 L 502,1477 C 502,1442 504,1395 514,1368 537,1309 621,1237 680,1237 717,1237 745,1270 780,1284 858,1317 985,1366 1059,1391 1085,1399 1096,1389 1079,1356 1030,1262 846,967 750,791 L 739,772 C 477,735 236,594 193,395 164,250 227,76 342,76 436,76 496,127 559,219 619,301 723,524 813,696 L 817,696 C 1141,696 1350,594 1493,502 1391,229 1157,23 831,-78 L 862,-125 C 1233,-41 1487,145 1602,428 1755,317 1810,231 1862,231 1901,231 1919,256 1919,289 1921,334 1909,367 1870,408 1823,457 1745,510 1645,569 1661,641 1673,715 1679,754 1686,801 1696,834 1696,866 1696,905 1614,954 1550,963 1516,967 1475,961 1442,950 Z M 692,686 C 614,547 520,379 471,313 426,252 397,223 344,223 289,223 248,315 270,403 305,535 473,653 692,686 Z"
   id="glyph10362" />

   <glyph
   unicode="の"
   horiz-adv-x="1652"
   d="M 1008,1350 L 1081,1354 C 1419,1354 1690,1120 1690,756 1690,385 1448,127 946,39 L 954,-8 C 1624,35 1837,383 1837,723 1837,1147 1511,1423 1090,1423 870,1423 659,1354 492,1204 317,1049 219,836 219,629 219,377 363,160 500,160 709,160 946,557 1032,803 1073,920 1096,1034 1096,1133 1096,1212 1055,1284 1008,1350 Z M 932,1337 C 967,1276 989,1223 989,1149 989,1057 954,932 915,834 831,639 643,315 508,315 424,315 334,465 334,662 334,842 414,1008 545,1135 649,1237 788,1309 932,1337 Z"
   id="glyph10364" />

   <glyph
   unicode="ど"
   horiz-adv-x="1576"
   d="M 1618,1276 C 1661,1225 1681,1180 1712,1180 1743,1178 1763,1198 1763,1233 1763,1270 1745,1307 1694,1356 1645,1403 1565,1450 1462,1493 L 1434,1456 C 1520,1393 1575,1329 1618,1276 Z M 1798,1417 C 1845,1370 1866,1319 1896,1319 1927,1319 1948,1337 1948,1374 1948,1415 1925,1454 1872,1499 1823,1540 1743,1581 1638,1618 L 1614,1583 C 1706,1518 1751,1470 1798,1417 Z M 414,1516 L 414,1473 C 444,1468 496,1458 528,1448 569,1432 580,1413 586,1378 606,1231 637,1059 674,952 698,887 737,819 795,776 662,682 424,483 424,252 424,37 639,-78 997,-78 1274,-78 1444,-51 1518,-31 1561,-18 1593,6 1593,35 1593,94 1530,113 1456,113 1399,113 1245,57 954,57 635,57 520,154 520,272 520,463 745,635 909,729 1051,813 1280,920 1407,963 1489,993 1540,1010 1540,1051 1540,1094 1489,1171 1415,1214 1378,1233 1325,1243 1270,1251 L 1251,1219 C 1294,1196 1339,1171 1356,1135 1370,1108 1362,1092 1329,1075 1251,1034 1042,928 891,838 831,879 799,936 776,1008 750,1090 733,1239 733,1317 731,1366 748,1389 745,1423 745,1473 637,1538 543,1538 504,1538 467,1530 414,1516 Z"
   id="glyph10366" />

   <glyph
   unicode="こ"
   horiz-adv-x="1372"
   d="M 530,1399 C 682,1233 829,1217 1069,1221 1098,1219 1100,1212 1077,1198 1004,1149 875,1065 772,999 L 799,958 C 940,1030 1126,1124 1229,1161 1331,1198 1393,1206 1450,1219 1501,1227 1522,1243 1522,1280 1522,1327 1415,1366 1339,1366 1260,1366 1212,1323 969,1323 809,1323 707,1341 561,1436 L 530,1399 Z M 506,602 C 504,342 557,135 1030,135 1384,135 1530,215 1585,215 1636,215 1698,186 1698,143 1698,107 1675,86 1614,66 1520,35 1337,-2 1053,-2 532,-2 379,242 451,602 L 506,602 Z"
   id="glyph10368" />

  </font>
    <font
       id="EmbeddedFont_2-7"
       horiz-adv-x="2048"
       horiz-origin-x="0"
       horiz-origin-y="0"
       vert-origin-x="512"
       vert-origin-y="768"
       vert-adv-y="1024">
   <font-face
   font-family="Noto Serif CJK JP Black embedded"
   units-per-em="2048"
   font-weight="normal"
   font-style="normal"
   ascent="2362"
   descent="584"
   id="font-face10373" />

   <missing-glyph
   horiz-adv-x="2048"
   d="M 0,0 L 2047,0 2047,2047 0,2047 0,0 Z"
   id="missing-glyph10375" />

   <glyph
   unicode="金"
   horiz-adv-x="2033"
   d="M 399,520 L 381,512 C 424,389 455,240 444,92 678,-152 1004,311 399,520 Z M 1352,535 C 1315,356 1266,150 1231,27 L 1253,12 C 1382,98 1528,227 1649,358 1696,356 1724,373 1733,399 L 1352,535 Z M 1126,1565 C 1239,1214 1501,989 1790,831 1810,952 1896,1096 2030,1135 L 2032,1167 C 1743,1229 1346,1337 1157,1589 1233,1597 1262,1610 1270,1640 L 825,1757 C 750,1458 383,1012 33,770 L 45,750 C 205,809 371,895 526,997 L 541,946 840,946 840,653 195,653 211,596 840,596 840,-59 90,-59 107,-117 1911,-117 C 1942,-117 1966,-107 1972,-84 1862,12 1675,154 1675,154 L 1511,-59 1149,-59 1149,596 1812,596 C 1843,596 1866,606 1872,629 1772,717 1602,848 1602,848 L 1454,653 1149,653 1149,946 1450,946 C 1479,946 1501,956 1507,979 1413,1061 1260,1178 1260,1178 L 1122,1004 537,1004 C 782,1165 999,1364 1126,1565 Z"
   id="glyph10377" />

   <glyph
   unicode="火"
   horiz-adv-x="2033"
   d="M 457,1417 C 467,1202 358,1020 258,954 180,899 141,811 188,717 246,619 383,594 475,684 604,803 666,1055 475,1419 L 457,1417 Z M 1585,1399 C 1522,1241 1378,975 1249,784 1163,1004 1122,1276 1106,1614 L 1106,1645 C 1157,1653 1178,1671 1184,1704 L 774,1741 C 774,903 834,309 41,-166 L 57,-193 C 897,90 1055,532 1092,1122 1141,465 1284,31 1755,-195 1786,-37 1878,72 2021,102 L 2023,125 C 1626,246 1397,440 1264,750 1489,862 1708,1022 1860,1145 1911,1137 1931,1151 1939,1171 L 1585,1399 Z"
   id="glyph10379" />

   <glyph
   unicode="水"
   horiz-adv-x="2008"
   d="M 1643,1417 C 1583,1284 1462,1065 1346,895 1270,1036 1208,1208 1174,1417 L 1174,1657 C 1227,1665 1241,1683 1245,1712 L 870,1749 870,1104 655,1286 512,1137 86,1137 104,1079 528,1079 C 471,690 322,285 33,27 L 49,6 C 522,233 735,629 829,1036 848,1038 860,1040 870,1042 L 870,170 C 870,145 858,133 823,133 770,133 512,150 512,150 L 512,123 C 637,100 684,68 725,23 766,-25 780,-92 788,-190 1126,-162 1174,-53 1174,150 L 1174,1282 C 1255,608 1430,283 1737,10 1778,147 1868,254 1991,279 L 2001,301 C 1776,403 1544,559 1376,838 1571,940 1761,1073 1892,1176 1944,1169 1964,1182 1974,1202 L 1643,1417 Z"
   id="glyph10381" />

   <glyph
   unicode="木"
   horiz-adv-x="2008"
   d="M 1686,1475 L 1520,1264 1171,1264 1165,1262 1165,1653 C 1223,1661 1237,1683 1241,1712 L 858,1749 858,1264 80,1264 96,1206 725,1206 C 621,788 383,326 49,37 L 68,18 C 412,193 674,430 858,715 L 858,-195 915,-195 C 1032,-195 1165,-119 1165,-90 L 1165,1171 C 1260,639 1425,274 1731,39 1778,184 1876,283 1993,305 L 2001,330 C 1667,477 1350,782 1192,1206 L 1925,1206 C 1956,1206 1980,1217 1987,1239 1874,1333 1686,1475 1686,1475 Z"
   id="glyph10383" />

   <glyph
   unicode="月"
   horiz-adv-x="1678"
   d="M 1343,1497 L 1343,1100 758,1100 758,1497 1343,1497 Z M 457,1554 L 457,911 C 457,506 418,121 84,-184 L 98,-199 C 541,-10 688,276 735,571 L 1343,571 1343,178 C 1343,150 1333,133 1298,133 1245,133 985,147 985,147 L 985,123 C 1110,98 1159,66 1200,20 1239,-25 1253,-96 1262,-197 1604,-166 1651,-55 1651,143 L 1651,1450 C 1694,1458 1718,1477 1731,1493 L 1458,1708 1323,1554 803,1554 457,1669 457,1554 Z M 1343,1042 L 1343,629 743,629 C 756,725 758,819 758,913 L 758,1042 1343,1042 Z"
   id="glyph10385" />

   <glyph
   unicode="日"
   horiz-adv-x="1474"
   d="M 1405,762 L 1405,86 672,86 672,762 1405,762 Z M 1405,819 L 672,819 672,1466 1405,1466 1405,819 Z M 358,1524 L 358,-184 410,-184 C 545,-184 672,-109 672,-70 L 672,29 1405,29 1405,-164 1456,-164 C 1575,-164 1724,-92 1729,-70 L 1729,1417 C 1769,1427 1792,1444 1806,1462 L 1530,1683 1384,1524 690,1524 358,1655 358,1524 Z"
   id="glyph10387" />

   <glyph
   unicode="土"
   horiz-adv-x="1982"
   d="M 182,995 L 199,938 852,938 852,-27 51,-27 68,-84 1939,-84 C 1970,-84 1995,-74 2001,-51 1884,47 1692,193 1692,193 L 1520,-27 1169,-27 1169,938 1825,938 C 1855,938 1880,948 1884,971 1774,1067 1587,1206 1587,1206 L 1421,995 1169,995 1169,1655 C 1227,1663 1241,1683 1245,1716 L 852,1751 852,995 182,995 Z"
   id="glyph10389" />

   <glyph
   unicode="©"
   horiz-adv-x="1626"
   d="M 868,-41 C 1292,-41 1663,274 1663,766 1663,1260 1292,1571 868,1571 440,1571 70,1260 70,766 70,274 440,-41 868,-41 Z M 868,37 C 487,37 170,322 170,766 170,1210 487,1493 868,1493 1249,1493 1567,1208 1567,766 1567,326 1249,37 868,37 Z M 909,285 C 1026,285 1118,315 1194,360 L 1200,598 1116,598 1055,363 C 1024,354 993,350 963,350 799,350 668,494 668,768 668,1042 797,1190 965,1190 993,1190 1020,1188 1047,1180 L 1110,940 1190,940 1186,1184 C 1106,1227 1032,1253 920,1253 659,1253 434,1083 434,766 434,455 645,285 909,285 Z"
   id="glyph10391" />

   <glyph
   unicode="y"
   horiz-adv-x="1271"
   d="M 797,1057 L 999,1036 862,610 731,250 446,1038 610,1057 610,1118 -14,1118 -14,1057 90,1047 582,-127 C 522,-264 467,-356 395,-420 L 363,-377 C 311,-311 252,-262 170,-262 90,-262 10,-303 -6,-395 0,-494 107,-555 221,-555 395,-555 530,-442 666,-84 L 1083,1038 1219,1057 1219,1118 797,1118 797,1057 Z"
   id="glyph10393" />

   <glyph
   unicode="t"
   horiz-adv-x="814"
   d="M 512,-35 C 670,-35 772,25 834,135 L 801,168 C 745,123 711,102 659,102 578,102 526,150 526,260 L 526,1034 778,1034 778,1118 526,1118 528,1450 317,1450 211,1118 29,1100 29,1034 195,1034 195,510 C 195,426 193,367 193,285 193,59 303,-35 512,-35 Z"
   id="glyph10395" />

   <glyph
   unicode="s"
   horiz-adv-x="941"
   d="M 487,-35 C 799,-35 987,104 987,344 987,512 893,625 678,690 L 557,727 C 397,774 356,836 356,909 356,1012 438,1075 565,1075 625,1075 668,1065 711,1044 L 788,803 905,803 920,1061 C 799,1120 694,1153 557,1153 256,1153 88,997 88,782 88,608 197,502 381,446 L 500,408 C 664,360 702,299 702,213 702,100 616,45 461,45 395,45 344,55 291,76 L 229,346 98,346 82,68 C 203,0 328,-35 487,-35 Z"
   id="glyph10397" />

   <glyph
   unicode="p"
   horiz-adv-x="1296"
   d="M 840,-35 C 1112,-35 1339,193 1339,565 1339,944 1141,1153 889,1153 754,1153 633,1106 539,999 L 522,1131 496,1151 55,1022 55,973 207,956 C 211,858 213,788 213,655 L 213,-14 209,-457 72,-471 72,-530 702,-530 702,-471 545,-453 541,-12 541,109 C 625,10 725,-35 840,-35 Z M 545,938 C 612,999 666,1012 727,1012 889,1012 983,897 983,563 983,221 875,111 715,111 647,111 596,121 545,162 L 545,938 Z"
   id="glyph10399" />

   <glyph
   unicode="o"
   horiz-adv-x="1195"
   d="M 651,-35 C 1001,-35 1233,199 1233,565 1233,932 975,1153 651,1153 330,1153 72,928 72,565 72,205 299,-35 651,-35 Z M 651,37 C 506,37 424,205 424,561 424,920 506,1081 651,1081 799,1081 879,920 879,561 879,205 799,37 651,37 Z"
   id="glyph10401" />

   <glyph
   unicode="k"
   horiz-adv-x="1347"
   d="M 780,1057 L 985,1032 729,784 545,606 545,1343 553,1673 522,1692 63,1604 63,1548 213,1536 213,487 209,76 72,63 72,0 678,0 678,63 549,76 C 547,193 545,383 545,504 L 545,518 635,602 926,0 1374,0 1374,63 1241,76 866,811 1114,1036 1313,1057 1313,1118 780,1118 780,1057 Z"
   id="glyph10403" />

   <glyph
   unicode="h"
   horiz-adv-x="1347"
   d="M 913,0 L 1380,0 1380,63 1257,74 1253,487 1253,754 C 1253,1032 1120,1153 920,1153 768,1153 659,1092 539,948 L 539,1343 545,1673 518,1692 63,1604 63,1548 213,1536 213,487 209,76 74,63 74,0 666,0 666,63 549,74 C 547,195 545,373 545,487 L 545,887 C 627,961 707,999 772,999 862,999 922,942 922,784 L 922,487 C 922,369 920,195 918,76 L 786,63 786,0 913,0 Z"
   id="glyph10405" />

   <glyph
   unicode=":"
   horiz-adv-x="408"
   d="M 348,-35 C 455,-35 537,49 537,152 537,256 455,342 348,342 242,342 160,256 160,152 160,49 242,-35 348,-35 Z M 348,754 C 455,754 537,838 537,940 537,1044 455,1131 348,1131 242,1131 160,1044 160,940 160,838 242,754 348,754 Z"
   id="glyph10407" />

   <glyph
   unicode="5"
   horiz-adv-x="1118"
   d="M 551,-35 C 901,-35 1155,133 1155,449 1155,754 942,913 596,913 498,913 408,903 319,877 L 348,1276 1102,1276 1102,1530 264,1530 215,809 276,768 C 348,791 416,803 494,803 684,803 805,670 805,434 805,174 680,37 492,37 446,37 416,41 383,53 L 354,256 C 342,377 293,422 209,422 152,422 98,391 76,330 92,107 264,-35 551,-35 Z"
   id="glyph10409" />

   <glyph
   unicode="1"
   horiz-adv-x="839"
   d="M 98,0 L 889,-6 889,55 676,102 C 672,231 670,360 670,485 L 670,1200 678,1534 647,1554 94,1430 94,1356 334,1384 334,485 330,100 98,63 98,0 Z"
   id="glyph10411" />

   <glyph
   unicode="0"
   horiz-adv-x="1119"
   d="M 627,-35 C 909,-35 1167,209 1167,768 1167,1323 909,1565 627,1565 342,1565 88,1323 88,768 88,209 342,-35 627,-35 Z M 627,37 C 504,37 401,193 401,768 401,1339 504,1493 627,1493 748,1493 854,1337 854,768 854,195 748,37 627,37 Z"
   id="glyph10413" />

   <glyph
   unicode="/"
   horiz-adv-x="788"
   d="M 53,-371 L 197,-371 817,1647 676,1647 53,-371 Z"
   id="glyph10415" />

   <glyph
   unicode="."
   horiz-adv-x="408"
   d="M 348,-35 C 455,-35 537,49 537,152 537,256 455,342 348,342 242,342 160,256 160,152 160,49 242,-35 348,-35 Z"
   id="glyph10417" />

  </font>
    <font
       id="EmbeddedFont_3-4"
       horiz-adv-x="2048"
       horiz-origin-x="0"
       horiz-origin-y="0"
       vert-origin-x="512"
       vert-origin-y="768"
       vert-adv-y="1024">
   <font-face
   font-family="Noto Serif CJK JP Black embedded"
   units-per-em="2048"
   font-weight="bold"
   font-style="normal"
   ascent="2362"
   descent="584"
   id="font-face10422" />

   <missing-glyph
   horiz-adv-x="2048"
   d="M 0,0 L 2047,0 2047,2047 0,2047 0,0 Z"
   id="missing-glyph10424" />

   <glyph
   unicode="年"
   horiz-adv-x="1982"
   d="M 537,1776 C 428,1425 229,1071 53,858 L 72,842 C 186,901 295,969 397,1053 L 397,377 53,377 70,319 1026,319 1026,-193 1087,-193 C 1255,-193 1350,-129 1352,-111 L 1352,319 1937,319 C 1968,319 1993,330 1999,352 1886,444 1704,580 1704,580 L 1542,377 1352,377 1352,887 1837,887 C 1868,887 1890,897 1896,920 1792,1006 1620,1133 1620,1133 L 1468,944 1352,944 1352,1358 1909,1358 C 1939,1358 1964,1368 1968,1391 1853,1487 1675,1616 1675,1616 L 1513,1415 741,1415 C 780,1468 817,1526 854,1587 903,1583 932,1599 942,1626 L 537,1776 Z M 1026,377 L 713,377 713,887 1026,887 1026,377 Z M 1026,944 L 741,944 412,1065 C 514,1147 608,1245 698,1358 L 1026,1358 1026,944 Z"
   id="glyph10426" />

   <glyph
   unicode="9"
   horiz-adv-x="1119"
   d="M 219,-41 C 788,63 1171,422 1171,911 1171,1321 971,1565 612,1565 326,1565 80,1391 80,1047 80,758 272,594 539,594 655,594 750,627 815,676 754,340 565,141 207,18 L 219,-41 Z M 825,739 C 778,705 731,690 668,690 506,690 406,840 406,1092 406,1374 504,1495 621,1495 748,1495 838,1362 838,956 838,879 834,807 825,739 Z"
   id="glyph10428" />

   <glyph
   unicode="8"
   horiz-adv-x="1067"
   d="M 596,-35 C 956,-35 1149,139 1149,403 1149,598 1036,743 791,860 1012,954 1098,1075 1098,1210 1098,1399 954,1565 639,1565 352,1565 139,1401 139,1147 139,956 242,803 446,700 225,623 109,498 109,322 109,117 264,-35 596,-35 Z M 743,883 C 469,1004 416,1133 416,1260 416,1403 518,1493 631,1493 762,1493 838,1380 838,1221 838,1085 811,983 743,883 Z M 496,678 C 772,557 852,432 852,281 852,127 772,37 623,37 469,37 379,139 379,360 379,494 412,584 496,678 Z"
   id="glyph10430" />

   <glyph
   unicode="7"
   horiz-adv-x="1017"
   d="M 299,0 L 571,0 1104,1372 1104,1530 123,1530 123,1276 971,1276 279,20 299,0 Z"
   id="glyph10432" />

   <glyph
   unicode="6"
   horiz-adv-x="1119"
   d="M 649,-35 C 977,-35 1174,184 1174,473 1174,745 1026,936 758,936 627,936 514,893 428,811 477,1159 705,1423 1092,1513 L 1081,1565 C 487,1511 82,1096 82,592 82,197 303,-35 649,-35 Z M 420,741 C 485,799 557,819 629,819 774,819 850,690 850,442 850,156 764,37 651,37 512,37 418,223 418,662 L 420,741 Z"
   id="glyph10434" />

   <glyph
   unicode="5"
   horiz-adv-x="1118"
   d="M 551,-35 C 901,-35 1155,133 1155,449 1155,754 942,913 596,913 498,913 408,903 319,877 L 348,1276 1102,1276 1102,1530 264,1530 215,809 276,768 C 348,791 416,803 494,803 684,803 805,670 805,434 805,174 680,37 492,37 446,37 416,41 383,53 L 354,256 C 342,377 293,422 209,422 152,422 98,391 76,330 92,107 264,-35 551,-35 Z"
   id="glyph10436" />

   <glyph
   unicode="4"
   horiz-adv-x="1169"
   d="M 682,-31 L 975,-31 975,346 1198,346 1198,559 975,559 975,1556 745,1556 68,518 68,346 682,346 682,-31 Z M 178,559 L 451,979 682,1337 682,559 178,559 Z"
   id="glyph10438" />

   <glyph
   unicode="3"
   horiz-adv-x="1093"
   d="M 580,-35 C 930,-35 1145,137 1145,387 1145,602 1030,758 707,807 991,864 1098,1014 1098,1202 1098,1413 944,1565 621,1565 371,1565 156,1460 150,1214 172,1176 213,1151 264,1151 336,1151 399,1186 418,1290 L 457,1489 C 481,1493 504,1495 524,1495 680,1495 772,1393 772,1190 772,946 651,836 471,836 L 401,836 401,756 481,756 C 690,756 801,627 801,385 801,156 684,37 473,37 444,37 420,39 397,45 L 365,246 C 346,383 295,424 213,424 160,424 107,395 84,330 102,100 268,-35 580,-35 Z"
   id="glyph10440" />

   <glyph
   unicode="2"
   horiz-adv-x="1067"
   d="M 121,0 L 1149,0 1149,252 287,252 C 383,336 477,414 543,467 924,766 1112,926 1112,1147 1112,1391 963,1565 639,1565 367,1565 129,1436 117,1192 139,1139 190,1104 250,1104 313,1104 381,1137 403,1276 L 444,1487 C 471,1493 498,1495 524,1495 682,1495 778,1376 778,1167 778,944 678,809 455,557 354,442 240,313 121,184 L 121,0 Z"
   id="glyph10442" />

   <glyph
   unicode="1"
   horiz-adv-x="839"
   d="M 98,0 L 889,-6 889,55 676,102 C 672,231 670,360 670,485 L 670,1200 678,1534 647,1554 94,1430 94,1356 334,1384 334,485 330,100 98,63 98,0 Z"
   id="glyph10444" />

   <glyph
   unicode="0"
   horiz-adv-x="1119"
   d="M 627,-35 C 909,-35 1167,209 1167,768 1167,1323 909,1565 627,1565 342,1565 88,1323 88,768 88,209 342,-35 627,-35 Z M 627,37 C 504,37 401,193 401,768 401,1339 504,1493 627,1493 748,1493 854,1337 854,768 854,195 748,37 627,37 Z"
   id="glyph10446" />

  </font>
    <g
       ooo:slide="id1"
       ooo:id-list="id3"
       id="g10451" />
    <g
       id="bullet-char-template-57356-52"
       transform="matrix(4.8828125e-4,0,0,-4.8828125e-4,0,0)">
   <path
   d="M 580,1141 1163,571 580,0 -4,571 Z"
   id="path10455" />

  </g>
    <g
       id="bullet-char-template-57354-5"
       transform="matrix(4.8828125e-4,0,0,-4.8828125e-4,0,0)">
   <path
   d="M 8,1128 H 1137 V 0 H 8 Z"
   id="path10458" />

  </g>
    <g
       id="bullet-char-template-10146-4"
       transform="matrix(4.8828125e-4,0,0,-4.8828125e-4,0,0)">
   <path
   d="M 174,0 602,739 174,1481 1456,739 Z M 1358,739 309,1346 659,739 Z"
   id="path10461" />

  </g>
    <g
       id="bullet-char-template-10132-7"
       transform="matrix(4.8828125e-4,0,0,-4.8828125e-4,0,0)">
   <path
   d="M 2015,739 1276,0 H 717 l 543,543 H 174 v 393 h 1086 l -543,545 h 557 z"
   id="path10464" />

  </g>
    <g
       id="bullet-char-template-10007-4"
       transform="matrix(4.8828125e-4,0,0,-4.8828125e-4,0,0)">
   <path
   d="m 0,-2 c -7,16 -16,29 -25,39 l 381,530 c -94,256 -141,385 -141,387 0,25 13,38 40,38 9,0 21,-2 34,-5 21,4 42,12 65,25 l 27,-13 111,-251 280,301 64,-25 24,25 c 21,-10 41,-24 62,-43 C 886,937 835,863 770,784 769,783 710,716 594,584 L 774,223 c 0,-27 -21,-55 -63,-84 l 16,-20 C 717,90 699,76 672,76 641,76 570,178 457,381 L 164,-76 c -22,-34 -53,-51 -92,-51 -42,0 -63,17 -64,51 -7,9 -10,24 -10,44 0,9 1,19 2,30 z"
   id="path10467" />

  </g>
    <g
       id="bullet-char-template-10004-4"
       transform="matrix(4.8828125e-4,0,0,-4.8828125e-4,0,0)">
   <path
   d="M 285,-33 C 182,-33 111,30 74,156 52,228 41,333 41,471 c 0,78 14,145 41,201 34,71 87,106 158,106 53,0 88,-31 106,-94 l 23,-176 c 8,-64 28,-97 59,-98 l 735,706 c 11,11 33,17 66,17 42,0 63,-15 63,-46 V 965 c 0,-36 -10,-64 -30,-84 L 442,47 C 390,-6 338,-33 285,-33 Z"
   id="path10470" />

  </g>
    <g
       id="bullet-char-template-9679-3"
       transform="matrix(4.8828125e-4,0,0,-4.8828125e-4,0,0)">
   <path
   d="M 813,0 C 632,0 489,54 383,161 276,268 223,411 223,592 c 0,181 53,324 160,431 106,107 249,161 430,161 179,0 323,-54 432,-161 108,-107 162,-251 162,-431 0,-180 -54,-324 -162,-431 C 1136,54 992,0 813,0 Z"
   id="path10473" />

  </g>
    <g
       id="bullet-char-template-8226-07"
       transform="matrix(4.8828125e-4,0,0,-4.8828125e-4,0,0)">
   <path
   d="m 346,457 c -73,0 -137,26 -191,78 -54,51 -81,114 -81,188 0,73 27,136 81,188 54,52 118,78 191,78 73,0 134,-26 185,-79 51,-51 77,-114 77,-187 0,-75 -25,-137 -76,-188 -50,-52 -112,-78 -186,-78 z"
   id="path10476" />

  </g>
    <g
       id="bullet-char-template-8211-8"
       transform="matrix(4.8828125e-4,0,0,-4.8828125e-4,0,0)">
   <path
   d="M -4,459 H 1135 V 606 H -4 Z"
   id="path10479" />

  </g>
    <g
       id="bullet-char-template-61548-6"
       transform="matrix(4.8828125e-4,0,0,-4.8828125e-4,0,0)">
   <path
   d="m 173,740 c 0,163 58,303 173,419 116,115 255,173 419,173 163,0 302,-58 418,-173 116,-116 174,-256 174,-419 0,-163 -58,-303 -174,-418 C 1067,206 928,148 765,148 601,148 462,206 346,322 231,437 173,577 173,740 Z"
   id="path10482" />

  </g>
    <clipPath
       id="clip_path_1-8"
       clipPathUnits="userSpaceOnUse">
          <path
   d="m 5801,9963 h 9773 V 20039 H 5801 Z"
   id="path10494" />

         </clipPath>
    <clipPath
       id="clip_path_2-8"
       clipPathUnits="userSpaceOnUse">
          <path
   d="m 8839,10262 h 2515 v 1092 H 8839 Z"
   id="path10843" />

         </clipPath>
    <clipPath
       id="clip_path_3-4"
       clipPathUnits="userSpaceOnUse">
          <path
   d="m 5801,9963 h 9773 V 20039 H 5801 Z"
   id="path10868" />

         </clipPath>
    <clipPath
       id="clip_path_4-31"
       clipPathUnits="userSpaceOnUse">
          <path
   d="m 5801,9963 h 9773 V 20039 H 5801 Z"
   id="path10907" />

         </clipPath>
    <clipPath
       id="clip_path_5-4"
       clipPathUnits="userSpaceOnUse">
          <path
   d="m 5801,9963 h 9773 V 20039 H 5801 Z"
   id="path10914" />

         </clipPath>
    <clipPath
       id="presentation_clip_path-92"
       clipPathUnits="userSpaceOnUse">
   <rect
   x="0"
   y="0"
   width="21000"
   height="29700"
   id="rect13449" />

  </clipPath>
    <clipPath
       id="presentation_clip_path_shrink-0"
       clipPathUnits="userSpaceOnUse">
   <rect
   x="21"
   y="29"
   width="20958"
   height="29641"
   id="rect13452" />

  </clipPath>
    <font
       id="EmbeddedFont_1-6"
       horiz-adv-x="2048"
       horiz-origin-x="0"
       horiz-origin-y="0"
       vert-origin-x="512"
       vert-origin-y="768"
       vert-adv-y="1024">
   <font-face
   font-family="Noto Serif CJK JP embedded"
   units-per-em="2048"
   font-weight="normal"
   font-style="normal"
   ascent="2362"
   descent="584"
   id="font-face13457" />

   <missing-glyph
   horiz-adv-x="2048"
   d="M 0,0 L 2047,0 2047,2047 0,2047 0,0 Z"
   id="missing-glyph13459" />

   <glyph
   unicode="昭"
   horiz-adv-x="1830"
   d="M 1069,594 L 1681,594 1681,72 1069,72 1069,594 Z M 938,651 L 938,-158 958,-158 C 1026,-158 1069,-121 1069,-111 L 1069,12 1681,12 1681,-133 1702,-133 C 1745,-133 1812,-100 1815,-88 L 1815,567 C 1855,575 1888,592 1903,608 L 1737,735 1663,651 1094,651 938,719 938,651 Z M 840,1595 L 858,1538 1200,1538 C 1186,1286 1131,1010 758,780 L 784,748 C 1239,965 1319,1255 1348,1538 L 1741,1538 C 1724,1223 1698,1028 1653,987 1636,971 1618,967 1583,967 1544,967 1411,977 1333,985 L 1333,950 C 1403,940 1479,920 1507,899 1534,881 1542,844 1542,807 1620,807 1692,827 1739,870 1817,938 1855,1151 1870,1522 1911,1528 1935,1536 1950,1552 L 1798,1677 1722,1595 840,1595 Z M 287,1468 L 602,1468 602,913 287,913 287,1468 Z M 158,1530 L 158,12 178,12 C 244,12 287,47 287,59 L 287,233 602,233 602,107 621,107 C 666,107 729,139 731,156 L 731,1444 C 772,1452 805,1468 819,1485 L 655,1614 582,1530 311,1530 158,1595 158,1530 Z M 287,854 L 602,854 602,295 287,295 287,854 Z"
   id="glyph13461" />

   <glyph
   unicode="日"
   horiz-adv-x="1348"
   d="M 1505,758 L 1505,98 549,98 549,758 1505,758 Z M 1505,819 L 549,819 549,1454 1505,1454 1505,819 Z M 414,1513 L 414,-143 438,-143 C 500,-143 549,-109 549,-88 L 549,39 1505,39 1505,-133 1526,-133 C 1575,-133 1643,-96 1645,-82 L 1645,1427 C 1686,1436 1718,1452 1733,1468 L 1563,1602 1485,1513 563,1513 414,1583 414,1513 Z"
   id="glyph13463" />

   <glyph
   unicode="和"
   horiz-adv-x="1880"
   d="M 887,1186 L 795,1065 631,1065 631,1493 C 735,1518 831,1542 909,1567 956,1550 993,1550 1012,1569 L 850,1708 C 678,1618 342,1493 70,1427 L 82,1393 C 217,1409 363,1434 500,1462 L 500,1065 86,1065 102,1004 442,1004 C 373,713 248,422 72,203 L 100,176 C 272,336 406,526 500,741 L 500,-160 520,-160 C 586,-160 631,-127 631,-115 L 631,831 C 725,741 836,610 875,514 1008,424 1098,688 631,877 L 631,1004 1004,1004 C 1034,1004 1053,1014 1059,1036 991,1100 887,1186 887,1186 Z M 1692,1333 L 1692,248 1229,248 1229,1333 1692,1333 Z M 1229,-6 L 1229,188 1692,188 1692,-18 1712,-18 C 1757,-18 1821,8 1825,18 L 1825,1305 C 1870,1313 1907,1329 1921,1348 L 1747,1483 1669,1395 1239,1395 1098,1462 1098,-55 1122,-55 C 1180,-55 1229,-23 1229,-6 Z"
   id="glyph13465" />

   <glyph
   unicode="の"
   horiz-adv-x="1652"
   d="M 1008,1350 L 1081,1354 C 1419,1354 1690,1120 1690,756 1690,385 1448,127 946,39 L 954,-8 C 1624,35 1837,383 1837,723 1837,1147 1511,1423 1090,1423 870,1423 659,1354 492,1204 317,1049 219,836 219,629 219,377 363,160 500,160 709,160 946,557 1032,803 1073,920 1096,1034 1096,1133 1096,1212 1055,1284 1008,1350 Z M 932,1337 C 967,1276 989,1223 989,1149 989,1057 954,932 915,834 831,639 643,315 508,315 424,315 334,465 334,662 334,842 414,1008 545,1135 649,1237 788,1309 932,1337 Z"
   id="glyph13467" />

  </font>
    <font
       id="EmbeddedFont_2-8"
       horiz-adv-x="2048"
       horiz-origin-x="0"
       horiz-origin-y="0"
       vert-origin-x="512"
       vert-origin-y="768"
       vert-adv-y="1024">
   <font-face
   font-family="Noto Serif CJK JP Black embedded"
   units-per-em="2048"
   font-weight="normal"
   font-style="normal"
   ascent="2362"
   descent="584"
   id="font-face13472" />

   <missing-glyph
   horiz-adv-x="2048"
   d="M 0,0 L 2047,0 2047,2047 0,2047 0,0 Z"
   id="missing-glyph13474" />

   <glyph
   unicode="金"
   horiz-adv-x="2033"
   d="M 399,520 L 381,512 C 424,389 455,240 444,92 678,-152 1004,311 399,520 Z M 1352,535 C 1315,356 1266,150 1231,27 L 1253,12 C 1382,98 1528,227 1649,358 1696,356 1724,373 1733,399 L 1352,535 Z M 1126,1565 C 1239,1214 1501,989 1790,831 1810,952 1896,1096 2030,1135 L 2032,1167 C 1743,1229 1346,1337 1157,1589 1233,1597 1262,1610 1270,1640 L 825,1757 C 750,1458 383,1012 33,770 L 45,750 C 205,809 371,895 526,997 L 541,946 840,946 840,653 195,653 211,596 840,596 840,-59 90,-59 107,-117 1911,-117 C 1942,-117 1966,-107 1972,-84 1862,12 1675,154 1675,154 L 1511,-59 1149,-59 1149,596 1812,596 C 1843,596 1866,606 1872,629 1772,717 1602,848 1602,848 L 1454,653 1149,653 1149,946 1450,946 C 1479,946 1501,956 1507,979 1413,1061 1260,1178 1260,1178 L 1122,1004 537,1004 C 782,1165 999,1364 1126,1565 Z"
   id="glyph13476" />

   <glyph
   unicode="火"
   horiz-adv-x="2033"
   d="M 457,1417 C 467,1202 358,1020 258,954 180,899 141,811 188,717 246,619 383,594 475,684 604,803 666,1055 475,1419 L 457,1417 Z M 1585,1399 C 1522,1241 1378,975 1249,784 1163,1004 1122,1276 1106,1614 L 1106,1645 C 1157,1653 1178,1671 1184,1704 L 774,1741 C 774,903 834,309 41,-166 L 57,-193 C 897,90 1055,532 1092,1122 1141,465 1284,31 1755,-195 1786,-37 1878,72 2021,102 L 2023,125 C 1626,246 1397,440 1264,750 1489,862 1708,1022 1860,1145 1911,1137 1931,1151 1939,1171 L 1585,1399 Z"
   id="glyph13478" />

   <glyph
   unicode="水"
   horiz-adv-x="2008"
   d="M 1643,1417 C 1583,1284 1462,1065 1346,895 1270,1036 1208,1208 1174,1417 L 1174,1657 C 1227,1665 1241,1683 1245,1712 L 870,1749 870,1104 655,1286 512,1137 86,1137 104,1079 528,1079 C 471,690 322,285 33,27 L 49,6 C 522,233 735,629 829,1036 848,1038 860,1040 870,1042 L 870,170 C 870,145 858,133 823,133 770,133 512,150 512,150 L 512,123 C 637,100 684,68 725,23 766,-25 780,-92 788,-190 1126,-162 1174,-53 1174,150 L 1174,1282 C 1255,608 1430,283 1737,10 1778,147 1868,254 1991,279 L 2001,301 C 1776,403 1544,559 1376,838 1571,940 1761,1073 1892,1176 1944,1169 1964,1182 1974,1202 L 1643,1417 Z"
   id="glyph13480" />

   <glyph
   unicode="木"
   horiz-adv-x="2008"
   d="M 1686,1475 L 1520,1264 1171,1264 1165,1262 1165,1653 C 1223,1661 1237,1683 1241,1712 L 858,1749 858,1264 80,1264 96,1206 725,1206 C 621,788 383,326 49,37 L 68,18 C 412,193 674,430 858,715 L 858,-195 915,-195 C 1032,-195 1165,-119 1165,-90 L 1165,1171 C 1260,639 1425,274 1731,39 1778,184 1876,283 1993,305 L 2001,330 C 1667,477 1350,782 1192,1206 L 1925,1206 C 1956,1206 1980,1217 1987,1239 1874,1333 1686,1475 1686,1475 Z"
   id="glyph13482" />

   <glyph
   unicode="月"
   horiz-adv-x="1678"
   d="M 1343,1497 L 1343,1100 758,1100 758,1497 1343,1497 Z M 457,1554 L 457,911 C 457,506 418,121 84,-184 L 98,-199 C 541,-10 688,276 735,571 L 1343,571 1343,178 C 1343,150 1333,133 1298,133 1245,133 985,147 985,147 L 985,123 C 1110,98 1159,66 1200,20 1239,-25 1253,-96 1262,-197 1604,-166 1651,-55 1651,143 L 1651,1450 C 1694,1458 1718,1477 1731,1493 L 1458,1708 1323,1554 803,1554 457,1669 457,1554 Z M 1343,1042 L 1343,629 743,629 C 756,725 758,819 758,913 L 758,1042 1343,1042 Z"
   id="glyph13484" />

   <glyph
   unicode="日"
   horiz-adv-x="1474"
   d="M 1405,762 L 1405,86 672,86 672,762 1405,762 Z M 1405,819 L 672,819 672,1466 1405,1466 1405,819 Z M 358,1524 L 358,-184 410,-184 C 545,-184 672,-109 672,-70 L 672,29 1405,29 1405,-164 1456,-164 C 1575,-164 1724,-92 1729,-70 L 1729,1417 C 1769,1427 1792,1444 1806,1462 L 1530,1683 1384,1524 690,1524 358,1655 358,1524 Z"
   id="glyph13486" />

   <glyph
   unicode="土"
   horiz-adv-x="1982"
   d="M 182,995 L 199,938 852,938 852,-27 51,-27 68,-84 1939,-84 C 1970,-84 1995,-74 2001,-51 1884,47 1692,193 1692,193 L 1520,-27 1169,-27 1169,938 1825,938 C 1855,938 1880,948 1884,971 1774,1067 1587,1206 1587,1206 L 1421,995 1169,995 1169,1655 C 1227,1663 1241,1683 1245,1716 L 852,1751 852,995 182,995 Z"
   id="glyph13488" />

   <glyph
   unicode="©"
   horiz-adv-x="1626"
   d="M 868,-41 C 1292,-41 1663,274 1663,766 1663,1260 1292,1571 868,1571 440,1571 70,1260 70,766 70,274 440,-41 868,-41 Z M 868,37 C 487,37 170,322 170,766 170,1210 487,1493 868,1493 1249,1493 1567,1208 1567,766 1567,326 1249,37 868,37 Z M 909,285 C 1026,285 1118,315 1194,360 L 1200,598 1116,598 1055,363 C 1024,354 993,350 963,350 799,350 668,494 668,768 668,1042 797,1190 965,1190 993,1190 1020,1188 1047,1180 L 1110,940 1190,940 1186,1184 C 1106,1227 1032,1253 920,1253 659,1253 434,1083 434,766 434,455 645,285 909,285 Z"
   id="glyph13490" />

   <glyph
   unicode="y"
   horiz-adv-x="1271"
   d="M 797,1057 L 999,1036 862,610 731,250 446,1038 610,1057 610,1118 -14,1118 -14,1057 90,1047 582,-127 C 522,-264 467,-356 395,-420 L 363,-377 C 311,-311 252,-262 170,-262 90,-262 10,-303 -6,-395 0,-494 107,-555 221,-555 395,-555 530,-442 666,-84 L 1083,1038 1219,1057 1219,1118 797,1118 797,1057 Z"
   id="glyph13492" />

   <glyph
   unicode="t"
   horiz-adv-x="814"
   d="M 512,-35 C 670,-35 772,25 834,135 L 801,168 C 745,123 711,102 659,102 578,102 526,150 526,260 L 526,1034 778,1034 778,1118 526,1118 528,1450 317,1450 211,1118 29,1100 29,1034 195,1034 195,510 C 195,426 193,367 193,285 193,59 303,-35 512,-35 Z"
   id="glyph13494" />

   <glyph
   unicode="s"
   horiz-adv-x="941"
   d="M 487,-35 C 799,-35 987,104 987,344 987,512 893,625 678,690 L 557,727 C 397,774 356,836 356,909 356,1012 438,1075 565,1075 625,1075 668,1065 711,1044 L 788,803 905,803 920,1061 C 799,1120 694,1153 557,1153 256,1153 88,997 88,782 88,608 197,502 381,446 L 500,408 C 664,360 702,299 702,213 702,100 616,45 461,45 395,45 344,55 291,76 L 229,346 98,346 82,68 C 203,0 328,-35 487,-35 Z"
   id="glyph13496" />

   <glyph
   unicode="p"
   horiz-adv-x="1296"
   d="M 840,-35 C 1112,-35 1339,193 1339,565 1339,944 1141,1153 889,1153 754,1153 633,1106 539,999 L 522,1131 496,1151 55,1022 55,973 207,956 C 211,858 213,788 213,655 L 213,-14 209,-457 72,-471 72,-530 702,-530 702,-471 545,-453 541,-12 541,109 C 625,10 725,-35 840,-35 Z M 545,938 C 612,999 666,1012 727,1012 889,1012 983,897 983,563 983,221 875,111 715,111 647,111 596,121 545,162 L 545,938 Z"
   id="glyph13498" />

   <glyph
   unicode="o"
   horiz-adv-x="1195"
   d="M 651,-35 C 1001,-35 1233,199 1233,565 1233,932 975,1153 651,1153 330,1153 72,928 72,565 72,205 299,-35 651,-35 Z M 651,37 C 506,37 424,205 424,561 424,920 506,1081 651,1081 799,1081 879,920 879,561 879,205 799,37 651,37 Z"
   id="glyph13500" />

   <glyph
   unicode="k"
   horiz-adv-x="1347"
   d="M 780,1057 L 985,1032 729,784 545,606 545,1343 553,1673 522,1692 63,1604 63,1548 213,1536 213,487 209,76 72,63 72,0 678,0 678,63 549,76 C 547,193 545,383 545,504 L 545,518 635,602 926,0 1374,0 1374,63 1241,76 866,811 1114,1036 1313,1057 1313,1118 780,1118 780,1057 Z"
   id="glyph13502" />

   <glyph
   unicode="h"
   horiz-adv-x="1347"
   d="M 913,0 L 1380,0 1380,63 1257,74 1253,487 1253,754 C 1253,1032 1120,1153 920,1153 768,1153 659,1092 539,948 L 539,1343 545,1673 518,1692 63,1604 63,1548 213,1536 213,487 209,76 74,63 74,0 666,0 666,63 549,74 C 547,195 545,373 545,487 L 545,887 C 627,961 707,999 772,999 862,999 922,942 922,784 L 922,487 C 922,369 920,195 918,76 L 786,63 786,0 913,0 Z"
   id="glyph13504" />

   <glyph
   unicode=":"
   horiz-adv-x="408"
   d="M 348,-35 C 455,-35 537,49 537,152 537,256 455,342 348,342 242,342 160,256 160,152 160,49 242,-35 348,-35 Z M 348,754 C 455,754 537,838 537,940 537,1044 455,1131 348,1131 242,1131 160,1044 160,940 160,838 242,754 348,754 Z"
   id="glyph13506" />

   <glyph
   unicode="4"
   horiz-adv-x="1169"
   d="M 682,-31 L 975,-31 975,346 1198,346 1198,559 975,559 975,1556 745,1556 68,518 68,346 682,346 682,-31 Z M 178,559 L 451,979 682,1337 682,559 178,559 Z"
   id="glyph13508" />

   <glyph
   unicode="1"
   horiz-adv-x="839"
   d="M 98,0 L 889,-6 889,55 676,102 C 672,231 670,360 670,485 L 670,1200 678,1534 647,1554 94,1430 94,1356 334,1384 334,485 330,100 98,63 98,0 Z"
   id="glyph13510" />

   <glyph
   unicode="0"
   horiz-adv-x="1119"
   d="M 627,-35 C 909,-35 1167,209 1167,768 1167,1323 909,1565 627,1565 342,1565 88,1323 88,768 88,209 342,-35 627,-35 Z M 627,37 C 504,37 401,193 401,768 401,1339 504,1493 627,1493 748,1493 854,1337 854,768 854,195 748,37 627,37 Z"
   id="glyph13512" />

   <glyph
   unicode="/"
   horiz-adv-x="788"
   d="M 53,-371 L 197,-371 817,1647 676,1647 53,-371 Z"
   id="glyph13514" />

   <glyph
   unicode="."
   horiz-adv-x="408"
   d="M 348,-35 C 455,-35 537,49 537,152 537,256 455,342 348,342 242,342 160,256 160,152 160,49 242,-35 348,-35 Z"
   id="glyph13516" />

  </font>
    <font
       id="EmbeddedFont_3-9"
       horiz-adv-x="2048"
       horiz-origin-x="0"
       horiz-origin-y="0"
       vert-origin-x="512"
       vert-origin-y="768"
       vert-adv-y="1024">
   <font-face
   font-family="Noto Serif CJK JP Black embedded"
   units-per-em="2048"
   font-weight="bold"
   font-style="normal"
   ascent="2362"
   descent="584"
   id="font-face13521" />

   <missing-glyph
   horiz-adv-x="2048"
   d="M 0,0 L 2047,0 2047,2047 0,2047 0,0 Z"
   id="missing-glyph13523" />

   <glyph
   unicode="年"
   horiz-adv-x="1982"
   d="M 537,1776 C 428,1425 229,1071 53,858 L 72,842 C 186,901 295,969 397,1053 L 397,377 53,377 70,319 1026,319 1026,-193 1087,-193 C 1255,-193 1350,-129 1352,-111 L 1352,319 1937,319 C 1968,319 1993,330 1999,352 1886,444 1704,580 1704,580 L 1542,377 1352,377 1352,887 1837,887 C 1868,887 1890,897 1896,920 1792,1006 1620,1133 1620,1133 L 1468,944 1352,944 1352,1358 1909,1358 C 1939,1358 1964,1368 1968,1391 1853,1487 1675,1616 1675,1616 L 1513,1415 741,1415 C 780,1468 817,1526 854,1587 903,1583 932,1599 942,1626 L 537,1776 Z M 1026,377 L 713,377 713,887 1026,887 1026,377 Z M 1026,944 L 741,944 412,1065 C 514,1147 608,1245 698,1358 L 1026,1358 1026,944 Z"
   id="glyph13525" />

   <glyph
   unicode="9"
   horiz-adv-x="1119"
   d="M 219,-41 C 788,63 1171,422 1171,911 1171,1321 971,1565 612,1565 326,1565 80,1391 80,1047 80,758 272,594 539,594 655,594 750,627 815,676 754,340 565,141 207,18 L 219,-41 Z M 825,739 C 778,705 731,690 668,690 506,690 406,840 406,1092 406,1374 504,1495 621,1495 748,1495 838,1362 838,956 838,879 834,807 825,739 Z"
   id="glyph13527" />

   <glyph
   unicode="8"
   horiz-adv-x="1067"
   d="M 596,-35 C 956,-35 1149,139 1149,403 1149,598 1036,743 791,860 1012,954 1098,1075 1098,1210 1098,1399 954,1565 639,1565 352,1565 139,1401 139,1147 139,956 242,803 446,700 225,623 109,498 109,322 109,117 264,-35 596,-35 Z M 743,883 C 469,1004 416,1133 416,1260 416,1403 518,1493 631,1493 762,1493 838,1380 838,1221 838,1085 811,983 743,883 Z M 496,678 C 772,557 852,432 852,281 852,127 772,37 623,37 469,37 379,139 379,360 379,494 412,584 496,678 Z"
   id="glyph13529" />

   <glyph
   unicode="7"
   horiz-adv-x="1017"
   d="M 299,0 L 571,0 1104,1372 1104,1530 123,1530 123,1276 971,1276 279,20 299,0 Z"
   id="glyph13531" />

   <glyph
   unicode="6"
   horiz-adv-x="1119"
   d="M 649,-35 C 977,-35 1174,184 1174,473 1174,745 1026,936 758,936 627,936 514,893 428,811 477,1159 705,1423 1092,1513 L 1081,1565 C 487,1511 82,1096 82,592 82,197 303,-35 649,-35 Z M 420,741 C 485,799 557,819 629,819 774,819 850,690 850,442 850,156 764,37 651,37 512,37 418,223 418,662 L 420,741 Z"
   id="glyph13533" />

   <glyph
   unicode="5"
   horiz-adv-x="1118"
   d="M 551,-35 C 901,-35 1155,133 1155,449 1155,754 942,913 596,913 498,913 408,903 319,877 L 348,1276 1102,1276 1102,1530 264,1530 215,809 276,768 C 348,791 416,803 494,803 684,803 805,670 805,434 805,174 680,37 492,37 446,37 416,41 383,53 L 354,256 C 342,377 293,422 209,422 152,422 98,391 76,330 92,107 264,-35 551,-35 Z"
   id="glyph13535" />

   <glyph
   unicode="4"
   horiz-adv-x="1169"
   d="M 682,-31 L 975,-31 975,346 1198,346 1198,559 975,559 975,1556 745,1556 68,518 68,346 682,346 682,-31 Z M 178,559 L 451,979 682,1337 682,559 178,559 Z"
   id="glyph13537" />

   <glyph
   unicode="3"
   horiz-adv-x="1093"
   d="M 580,-35 C 930,-35 1145,137 1145,387 1145,602 1030,758 707,807 991,864 1098,1014 1098,1202 1098,1413 944,1565 621,1565 371,1565 156,1460 150,1214 172,1176 213,1151 264,1151 336,1151 399,1186 418,1290 L 457,1489 C 481,1493 504,1495 524,1495 680,1495 772,1393 772,1190 772,946 651,836 471,836 L 401,836 401,756 481,756 C 690,756 801,627 801,385 801,156 684,37 473,37 444,37 420,39 397,45 L 365,246 C 346,383 295,424 213,424 160,424 107,395 84,330 102,100 268,-35 580,-35 Z"
   id="glyph13539" />

   <glyph
   unicode="2"
   horiz-adv-x="1067"
   d="M 121,0 L 1149,0 1149,252 287,252 C 383,336 477,414 543,467 924,766 1112,926 1112,1147 1112,1391 963,1565 639,1565 367,1565 129,1436 117,1192 139,1139 190,1104 250,1104 313,1104 381,1137 403,1276 L 444,1487 C 471,1493 498,1495 524,1495 682,1495 778,1376 778,1167 778,944 678,809 455,557 354,442 240,313 121,184 L 121,0 Z"
   id="glyph13541" />

   <glyph
   unicode="1"
   horiz-adv-x="839"
   d="M 98,0 L 889,-6 889,55 676,102 C 672,231 670,360 670,485 L 670,1200 678,1534 647,1554 94,1430 94,1356 334,1384 334,485 330,100 98,63 98,0 Z"
   id="glyph13543" />

   <glyph
   unicode="0"
   horiz-adv-x="1119"
   d="M 627,-35 C 909,-35 1167,209 1167,768 1167,1323 909,1565 627,1565 342,1565 88,1323 88,768 88,209 342,-35 627,-35 Z M 627,37 C 504,37 401,193 401,768 401,1339 504,1493 627,1493 748,1493 854,1337 854,768 854,195 748,37 627,37 Z"
   id="glyph13545" />

  </font>
    <g
       ooo:slide="id1"
       ooo:id-list="id3"
       id="g13550" />
    <g
       id="bullet-char-template-57356-26"
       transform="matrix(4.8828125e-4,0,0,-4.8828125e-4,0,0)">
   <path
   d="M 580,1141 1163,571 580,0 -4,571 Z"
   id="path13554" />

  </g>
    <g
       id="bullet-char-template-57354-64"
       transform="matrix(4.8828125e-4,0,0,-4.8828125e-4,0,0)">
   <path
   d="M 8,1128 H 1137 V 0 H 8 Z"
   id="path13557" />

  </g>
    <g
       id="bullet-char-template-10146-9"
       transform="matrix(4.8828125e-4,0,0,-4.8828125e-4,0,0)">
   <path
   d="M 174,0 602,739 174,1481 1456,739 Z M 1358,739 309,1346 659,739 Z"
   id="path13560" />

  </g>
    <g
       id="bullet-char-template-10132-50"
       transform="matrix(4.8828125e-4,0,0,-4.8828125e-4,0,0)">
   <path
   d="M 2015,739 1276,0 H 717 l 543,543 H 174 v 393 h 1086 l -543,545 h 557 z"
   id="path13563" />

  </g>
    <g
       id="bullet-char-template-10007-48"
       transform="matrix(4.8828125e-4,0,0,-4.8828125e-4,0,0)">
   <path
   d="m 0,-2 c -7,16 -16,29 -25,39 l 381,530 c -94,256 -141,385 -141,387 0,25 13,38 40,38 9,0 21,-2 34,-5 21,4 42,12 65,25 l 27,-13 111,-251 280,301 64,-25 24,25 c 21,-10 41,-24 62,-43 C 886,937 835,863 770,784 769,783 710,716 594,584 L 774,223 c 0,-27 -21,-55 -63,-84 l 16,-20 C 717,90 699,76 672,76 641,76 570,178 457,381 L 164,-76 c -22,-34 -53,-51 -92,-51 -42,0 -63,17 -64,51 -7,9 -10,24 -10,44 0,9 1,19 2,30 z"
   id="path13566" />

  </g>
    <g
       id="bullet-char-template-10004-7"
       transform="matrix(4.8828125e-4,0,0,-4.8828125e-4,0,0)">
   <path
   d="M 285,-33 C 182,-33 111,30 74,156 52,228 41,333 41,471 c 0,78 14,145 41,201 34,71 87,106 158,106 53,0 88,-31 106,-94 l 23,-176 c 8,-64 28,-97 59,-98 l 735,706 c 11,11 33,17 66,17 42,0 63,-15 63,-46 V 965 c 0,-36 -10,-64 -30,-84 L 442,47 C 390,-6 338,-33 285,-33 Z"
   id="path13569" />

  </g>
    <g
       id="bullet-char-template-9679-1"
       transform="matrix(4.8828125e-4,0,0,-4.8828125e-4,0,0)">
   <path
   d="M 813,0 C 632,0 489,54 383,161 276,268 223,411 223,592 c 0,181 53,324 160,431 106,107 249,161 430,161 179,0 323,-54 432,-161 108,-107 162,-251 162,-431 0,-180 -54,-324 -162,-431 C 1136,54 992,0 813,0 Z"
   id="path13572" />

  </g>
    <g
       id="bullet-char-template-8226-7"
       transform="matrix(4.8828125e-4,0,0,-4.8828125e-4,0,0)">
   <path
   d="m 346,457 c -73,0 -137,26 -191,78 -54,51 -81,114 -81,188 0,73 27,136 81,188 54,52 118,78 191,78 73,0 134,-26 185,-79 51,-51 77,-114 77,-187 0,-75 -25,-137 -76,-188 -50,-52 -112,-78 -186,-78 z"
   id="path13575" />

  </g>
    <g
       id="bullet-char-template-8211-2"
       transform="matrix(4.8828125e-4,0,0,-4.8828125e-4,0,0)">
   <path
   d="M -4,459 H 1135 V 606 H -4 Z"
   id="path13578" />

  </g>
    <g
       id="bullet-char-template-61548-7"
       transform="matrix(4.8828125e-4,0,0,-4.8828125e-4,0,0)">
   <path
   d="m 173,740 c 0,163 58,303 173,419 116,115 255,173 419,173 163,0 302,-58 418,-173 116,-116 174,-256 174,-419 0,-163 -58,-303 -174,-418 C 1067,206 928,148 765,148 601,148 462,206 346,322 231,437 173,577 173,740 Z"
   id="path13581" />

  </g>
    <clipPath
       id="clip_path_1-2"
       clipPathUnits="userSpaceOnUse">
          <path
   d="m 5801,9924 h 9773 V 20077 H 5801 Z"
   id="path13593" />

         </clipPath>
    <clipPath
       id="clip_path_2-26"
       clipPathUnits="userSpaceOnUse">
          <path
   d="m 8839,10211 h 2515 v 1092 H 8839 Z"
   id="path13934" />

         </clipPath>
    <clipPath
       id="clip_path_3-1"
       clipPathUnits="userSpaceOnUse">
          <path
   d="m 5801,9924 h 9773 V 20077 H 5801 Z"
   id="path13959" />

         </clipPath>
    <clipPath
       id="clip_path_4-0"
       clipPathUnits="userSpaceOnUse">
          <path
   d="m 5801,9924 h 9773 V 20077 H 5801 Z"
   id="path13974" />

         </clipPath>
    <clipPath
       id="clip_path_5-61"
       clipPathUnits="userSpaceOnUse">
          <path
   d="m 5801,9924 h 9773 V 20077 H 5801 Z"
   id="path13981" />

         </clipPath>
    <clipPath
       id="presentation_clip_path-5"
       clipPathUnits="userSpaceOnUse">
   <rect
   x="0"
   y="0"
   width="21000"
   height="29700"
   id="rect16580" />

  </clipPath>
    <clipPath
       id="presentation_clip_path_shrink-94"
       clipPathUnits="userSpaceOnUse">
   <rect
   x="21"
   y="29"
   width="20958"
   height="29641"
   id="rect16583" />

  </clipPath>
    <font
       id="EmbeddedFont_1-9"
       horiz-adv-x="2048"
       horiz-origin-x="0"
       horiz-origin-y="0"
       vert-origin-x="512"
       vert-origin-y="768"
       vert-adv-y="1024">
   <font-face
   font-family="Noto Serif CJK JP embedded"
   units-per-em="2048"
   font-weight="normal"
   font-style="normal"
   ascent="2362"
   descent="584"
   id="font-face16588" />

   <missing-glyph
   horiz-adv-x="2048"
   d="M 0,0 L 2047,0 2047,2047 0,2047 0,0 Z"
   id="missing-glyph16590" />

   <glyph
   unicode="春"
   horiz-adv-x="1957"
   d="M 897,1726 C 887,1645 872,1563 856,1483 L 197,1483 213,1425 844,1425 C 827,1354 807,1284 784,1214 L 297,1214 313,1155 762,1155 C 735,1079 702,1006 666,934 L 100,934 119,875 633,875 C 504,649 322,451 68,303 L 88,279 C 272,360 422,465 545,584 L 545,-156 567,-156 C 637,-156 680,-121 680,-109 L 680,-35 1376,-35 1376,-147 1397,-147 C 1442,-147 1511,-117 1513,-100 L 1516,586 C 1616,492 1726,414 1845,354 1860,416 1911,453 1978,467 L 1982,492 C 1769,567 1550,700 1382,875 L 1901,875 C 1931,875 1950,885 1956,907 1884,973 1769,1059 1769,1059 L 1667,934 1329,934 C 1272,1001 1223,1077 1186,1155 L 1733,1155 C 1761,1155 1780,1165 1786,1188 1720,1249 1612,1331 1612,1331 L 1520,1214 936,1214 C 961,1284 983,1354 999,1425 L 1808,1425 C 1837,1425 1855,1434 1860,1456 1792,1522 1681,1606 1681,1606 L 1581,1483 1014,1483 1044,1632 C 1087,1632 1116,1649 1122,1683 L 897,1726 Z M 915,1155 L 1135,1155 C 1163,1077 1200,1004 1241,934 L 811,934 C 850,1006 885,1079 915,1155 Z M 776,875 L 1276,875 C 1315,813 1358,756 1405,700 L 1362,653 705,653 637,682 C 690,743 735,807 776,875 Z M 1376,283 L 1376,27 680,27 680,283 1376,283 Z M 1376,344 L 680,344 680,596 1376,596 1376,344 Z"
   id="glyph16592" />

   <glyph
   unicode="日"
   horiz-adv-x="1348"
   d="M 1505,758 L 1505,98 549,98 549,758 1505,758 Z M 1505,819 L 549,819 549,1454 1505,1454 1505,819 Z M 414,1513 L 414,-143 438,-143 C 500,-143 549,-109 549,-88 L 549,39 1505,39 1505,-133 1526,-133 C 1575,-133 1643,-96 1645,-82 L 1645,1427 C 1686,1436 1718,1452 1733,1468 L 1563,1602 1485,1513 563,1513 414,1583 414,1513 Z"
   id="glyph16594" />

   <glyph
   unicode="分"
   horiz-adv-x="1932"
   d="M 719,1714 C 616,1413 385,1047 80,823 L 100,797 C 461,991 717,1325 848,1604 899,1599 918,1610 926,1634 L 719,1714 Z M 1245,1720 L 1210,1702 C 1325,1339 1583,1028 1862,844 1886,909 1931,946 1987,950 L 1993,973 C 1700,1116 1374,1403 1245,1720 Z M 367,909 L 385,850 815,850 C 797,547 715,180 162,-125 L 188,-158 C 821,127 928,512 963,850 L 1462,850 C 1438,442 1389,109 1319,47 1296,27 1276,23 1233,23 1184,23 1001,39 895,49 L 893,12 C 987,0 1094,-25 1131,-47 1161,-68 1174,-107 1171,-147 1274,-147 1356,-121 1413,-66 1513,27 1573,381 1597,834 1640,838 1667,850 1681,864 L 1524,995 1444,909 367,909 Z"
   id="glyph16596" />

   <glyph
   unicode="の"
   horiz-adv-x="1652"
   d="M 1008,1350 L 1081,1354 C 1419,1354 1690,1120 1690,756 1690,385 1448,127 946,39 L 954,-8 C 1624,35 1837,383 1837,723 1837,1147 1511,1423 1090,1423 870,1423 659,1354 492,1204 317,1049 219,836 219,629 219,377 363,160 500,160 709,160 946,557 1032,803 1073,920 1096,1034 1096,1133 1096,1212 1055,1284 1008,1350 Z M 932,1337 C 967,1276 989,1223 989,1149 989,1057 954,932 915,834 831,639 643,315 508,315 424,315 334,465 334,662 334,842 414,1008 545,1135 649,1237 788,1309 932,1337 Z"
   id="glyph16598" />

  </font>
    <font
       id="EmbeddedFont_2-0"
       horiz-adv-x="2048"
       horiz-origin-x="0"
       horiz-origin-y="0"
       vert-origin-x="512"
       vert-origin-y="768"
       vert-adv-y="1024">
   <font-face
   font-family="Noto Serif CJK JP Black embedded"
   units-per-em="2048"
   font-weight="normal"
   font-style="normal"
   ascent="2362"
   descent="584"
   id="font-face16603" />

   <missing-glyph
   horiz-adv-x="2048"
   d="M 0,0 L 2047,0 2047,2047 0,2047 0,0 Z"
   id="missing-glyph16605" />

   <glyph
   unicode="金"
   horiz-adv-x="2033"
   d="M 399,520 L 381,512 C 424,389 455,240 444,92 678,-152 1004,311 399,520 Z M 1352,535 C 1315,356 1266,150 1231,27 L 1253,12 C 1382,98 1528,227 1649,358 1696,356 1724,373 1733,399 L 1352,535 Z M 1126,1565 C 1239,1214 1501,989 1790,831 1810,952 1896,1096 2030,1135 L 2032,1167 C 1743,1229 1346,1337 1157,1589 1233,1597 1262,1610 1270,1640 L 825,1757 C 750,1458 383,1012 33,770 L 45,750 C 205,809 371,895 526,997 L 541,946 840,946 840,653 195,653 211,596 840,596 840,-59 90,-59 107,-117 1911,-117 C 1942,-117 1966,-107 1972,-84 1862,12 1675,154 1675,154 L 1511,-59 1149,-59 1149,596 1812,596 C 1843,596 1866,606 1872,629 1772,717 1602,848 1602,848 L 1454,653 1149,653 1149,946 1450,946 C 1479,946 1501,956 1507,979 1413,1061 1260,1178 1260,1178 L 1122,1004 537,1004 C 782,1165 999,1364 1126,1565 Z"
   id="glyph16607" />

   <glyph
   unicode="火"
   horiz-adv-x="2033"
   d="M 457,1417 C 467,1202 358,1020 258,954 180,899 141,811 188,717 246,619 383,594 475,684 604,803 666,1055 475,1419 L 457,1417 Z M 1585,1399 C 1522,1241 1378,975 1249,784 1163,1004 1122,1276 1106,1614 L 1106,1645 C 1157,1653 1178,1671 1184,1704 L 774,1741 C 774,903 834,309 41,-166 L 57,-193 C 897,90 1055,532 1092,1122 1141,465 1284,31 1755,-195 1786,-37 1878,72 2021,102 L 2023,125 C 1626,246 1397,440 1264,750 1489,862 1708,1022 1860,1145 1911,1137 1931,1151 1939,1171 L 1585,1399 Z"
   id="glyph16609" />

   <glyph
   unicode="水"
   horiz-adv-x="2008"
   d="M 1643,1417 C 1583,1284 1462,1065 1346,895 1270,1036 1208,1208 1174,1417 L 1174,1657 C 1227,1665 1241,1683 1245,1712 L 870,1749 870,1104 655,1286 512,1137 86,1137 104,1079 528,1079 C 471,690 322,285 33,27 L 49,6 C 522,233 735,629 829,1036 848,1038 860,1040 870,1042 L 870,170 C 870,145 858,133 823,133 770,133 512,150 512,150 L 512,123 C 637,100 684,68 725,23 766,-25 780,-92 788,-190 1126,-162 1174,-53 1174,150 L 1174,1282 C 1255,608 1430,283 1737,10 1778,147 1868,254 1991,279 L 2001,301 C 1776,403 1544,559 1376,838 1571,940 1761,1073 1892,1176 1944,1169 1964,1182 1974,1202 L 1643,1417 Z"
   id="glyph16611" />

   <glyph
   unicode="木"
   horiz-adv-x="2008"
   d="M 1686,1475 L 1520,1264 1171,1264 1165,1262 1165,1653 C 1223,1661 1237,1683 1241,1712 L 858,1749 858,1264 80,1264 96,1206 725,1206 C 621,788 383,326 49,37 L 68,18 C 412,193 674,430 858,715 L 858,-195 915,-195 C 1032,-195 1165,-119 1165,-90 L 1165,1171 C 1260,639 1425,274 1731,39 1778,184 1876,283 1993,305 L 2001,330 C 1667,477 1350,782 1192,1206 L 1925,1206 C 1956,1206 1980,1217 1987,1239 1874,1333 1686,1475 1686,1475 Z"
   id="glyph16613" />

   <glyph
   unicode="月"
   horiz-adv-x="1678"
   d="M 1343,1497 L 1343,1100 758,1100 758,1497 1343,1497 Z M 457,1554 L 457,911 C 457,506 418,121 84,-184 L 98,-199 C 541,-10 688,276 735,571 L 1343,571 1343,178 C 1343,150 1333,133 1298,133 1245,133 985,147 985,147 L 985,123 C 1110,98 1159,66 1200,20 1239,-25 1253,-96 1262,-197 1604,-166 1651,-55 1651,143 L 1651,1450 C 1694,1458 1718,1477 1731,1493 L 1458,1708 1323,1554 803,1554 457,1669 457,1554 Z M 1343,1042 L 1343,629 743,629 C 756,725 758,819 758,913 L 758,1042 1343,1042 Z"
   id="glyph16615" />

   <glyph
   unicode="日"
   horiz-adv-x="1474"
   d="M 1405,762 L 1405,86 672,86 672,762 1405,762 Z M 1405,819 L 672,819 672,1466 1405,1466 1405,819 Z M 358,1524 L 358,-184 410,-184 C 545,-184 672,-109 672,-70 L 672,29 1405,29 1405,-164 1456,-164 C 1575,-164 1724,-92 1729,-70 L 1729,1417 C 1769,1427 1792,1444 1806,1462 L 1530,1683 1384,1524 690,1524 358,1655 358,1524 Z"
   id="glyph16617" />

   <glyph
   unicode="土"
   horiz-adv-x="1982"
   d="M 182,995 L 199,938 852,938 852,-27 51,-27 68,-84 1939,-84 C 1970,-84 1995,-74 2001,-51 1884,47 1692,193 1692,193 L 1520,-27 1169,-27 1169,938 1825,938 C 1855,938 1880,948 1884,971 1774,1067 1587,1206 1587,1206 L 1421,995 1169,995 1169,1655 C 1227,1663 1241,1683 1245,1716 L 852,1751 852,995 182,995 Z"
   id="glyph16619" />

   <glyph
   unicode="©"
   horiz-adv-x="1626"
   d="M 868,-41 C 1292,-41 1663,274 1663,766 1663,1260 1292,1571 868,1571 440,1571 70,1260 70,766 70,274 440,-41 868,-41 Z M 868,37 C 487,37 170,322 170,766 170,1210 487,1493 868,1493 1249,1493 1567,1208 1567,766 1567,326 1249,37 868,37 Z M 909,285 C 1026,285 1118,315 1194,360 L 1200,598 1116,598 1055,363 C 1024,354 993,350 963,350 799,350 668,494 668,768 668,1042 797,1190 965,1190 993,1190 1020,1188 1047,1180 L 1110,940 1190,940 1186,1184 C 1106,1227 1032,1253 920,1253 659,1253 434,1083 434,766 434,455 645,285 909,285 Z"
   id="glyph16621" />

   <glyph
   unicode="y"
   horiz-adv-x="1271"
   d="M 797,1057 L 999,1036 862,610 731,250 446,1038 610,1057 610,1118 -14,1118 -14,1057 90,1047 582,-127 C 522,-264 467,-356 395,-420 L 363,-377 C 311,-311 252,-262 170,-262 90,-262 10,-303 -6,-395 0,-494 107,-555 221,-555 395,-555 530,-442 666,-84 L 1083,1038 1219,1057 1219,1118 797,1118 797,1057 Z"
   id="glyph16623" />

   <glyph
   unicode="t"
   horiz-adv-x="814"
   d="M 512,-35 C 670,-35 772,25 834,135 L 801,168 C 745,123 711,102 659,102 578,102 526,150 526,260 L 526,1034 778,1034 778,1118 526,1118 528,1450 317,1450 211,1118 29,1100 29,1034 195,1034 195,510 C 195,426 193,367 193,285 193,59 303,-35 512,-35 Z"
   id="glyph16625" />

   <glyph
   unicode="s"
   horiz-adv-x="941"
   d="M 487,-35 C 799,-35 987,104 987,344 987,512 893,625 678,690 L 557,727 C 397,774 356,836 356,909 356,1012 438,1075 565,1075 625,1075 668,1065 711,1044 L 788,803 905,803 920,1061 C 799,1120 694,1153 557,1153 256,1153 88,997 88,782 88,608 197,502 381,446 L 500,408 C 664,360 702,299 702,213 702,100 616,45 461,45 395,45 344,55 291,76 L 229,346 98,346 82,68 C 203,0 328,-35 487,-35 Z"
   id="glyph16627" />

   <glyph
   unicode="p"
   horiz-adv-x="1296"
   d="M 840,-35 C 1112,-35 1339,193 1339,565 1339,944 1141,1153 889,1153 754,1153 633,1106 539,999 L 522,1131 496,1151 55,1022 55,973 207,956 C 211,858 213,788 213,655 L 213,-14 209,-457 72,-471 72,-530 702,-530 702,-471 545,-453 541,-12 541,109 C 625,10 725,-35 840,-35 Z M 545,938 C 612,999 666,1012 727,1012 889,1012 983,897 983,563 983,221 875,111 715,111 647,111 596,121 545,162 L 545,938 Z"
   id="glyph16629" />

   <glyph
   unicode="o"
   horiz-adv-x="1195"
   d="M 651,-35 C 1001,-35 1233,199 1233,565 1233,932 975,1153 651,1153 330,1153 72,928 72,565 72,205 299,-35 651,-35 Z M 651,37 C 506,37 424,205 424,561 424,920 506,1081 651,1081 799,1081 879,920 879,561 879,205 799,37 651,37 Z"
   id="glyph16631" />

   <glyph
   unicode="k"
   horiz-adv-x="1347"
   d="M 780,1057 L 985,1032 729,784 545,606 545,1343 553,1673 522,1692 63,1604 63,1548 213,1536 213,487 209,76 72,63 72,0 678,0 678,63 549,76 C 547,193 545,383 545,504 L 545,518 635,602 926,0 1374,0 1374,63 1241,76 866,811 1114,1036 1313,1057 1313,1118 780,1118 780,1057 Z"
   id="glyph16633" />

   <glyph
   unicode="h"
   horiz-adv-x="1347"
   d="M 913,0 L 1380,0 1380,63 1257,74 1253,487 1253,754 C 1253,1032 1120,1153 920,1153 768,1153 659,1092 539,948 L 539,1343 545,1673 518,1692 63,1604 63,1548 213,1536 213,487 209,76 74,63 74,0 666,0 666,63 549,74 C 547,195 545,373 545,487 L 545,887 C 627,961 707,999 772,999 862,999 922,942 922,784 L 922,487 C 922,369 920,195 918,76 L 786,63 786,0 913,0 Z"
   id="glyph16635" />

   <glyph
   unicode=":"
   horiz-adv-x="408"
   d="M 348,-35 C 455,-35 537,49 537,152 537,256 455,342 348,342 242,342 160,256 160,152 160,49 242,-35 348,-35 Z M 348,754 C 455,754 537,838 537,940 537,1044 455,1131 348,1131 242,1131 160,1044 160,940 160,838 242,754 348,754 Z"
   id="glyph16637" />

   <glyph
   unicode="3"
   horiz-adv-x="1093"
   d="M 580,-35 C 930,-35 1145,137 1145,387 1145,602 1030,758 707,807 991,864 1098,1014 1098,1202 1098,1413 944,1565 621,1565 371,1565 156,1460 150,1214 172,1176 213,1151 264,1151 336,1151 399,1186 418,1290 L 457,1489 C 481,1493 504,1495 524,1495 680,1495 772,1393 772,1190 772,946 651,836 471,836 L 401,836 401,756 481,756 C 690,756 801,627 801,385 801,156 684,37 473,37 444,37 420,39 397,45 L 365,246 C 346,383 295,424 213,424 160,424 107,395 84,330 102,100 268,-35 580,-35 Z"
   id="glyph16639" />

   <glyph
   unicode="1"
   horiz-adv-x="839"
   d="M 98,0 L 889,-6 889,55 676,102 C 672,231 670,360 670,485 L 670,1200 678,1534 647,1554 94,1430 94,1356 334,1384 334,485 330,100 98,63 98,0 Z"
   id="glyph16641" />

   <glyph
   unicode="0"
   horiz-adv-x="1119"
   d="M 627,-35 C 909,-35 1167,209 1167,768 1167,1323 909,1565 627,1565 342,1565 88,1323 88,768 88,209 342,-35 627,-35 Z M 627,37 C 504,37 401,193 401,768 401,1339 504,1493 627,1493 748,1493 854,1337 854,768 854,195 748,37 627,37 Z"
   id="glyph16643" />

   <glyph
   unicode="/"
   horiz-adv-x="788"
   d="M 53,-371 L 197,-371 817,1647 676,1647 53,-371 Z"
   id="glyph16645" />

   <glyph
   unicode="."
   horiz-adv-x="408"
   d="M 348,-35 C 455,-35 537,49 537,152 537,256 455,342 348,342 242,342 160,256 160,152 160,49 242,-35 348,-35 Z"
   id="glyph16647" />

  </font>
    <font
       id="EmbeddedFont_3-91"
       horiz-adv-x="2048"
       horiz-origin-x="0"
       horiz-origin-y="0"
       vert-origin-x="512"
       vert-origin-y="768"
       vert-adv-y="1024">
   <font-face
   font-family="Noto Serif CJK JP Black embedded"
   units-per-em="2048"
   font-weight="bold"
   font-style="normal"
   ascent="2362"
   descent="584"
   id="font-face16652" />

   <missing-glyph
   horiz-adv-x="2048"
   d="M 0,0 L 2047,0 2047,2047 0,2047 0,0 Z"
   id="missing-glyph16654" />

   <glyph
   unicode="年"
   horiz-adv-x="1982"
   d="M 537,1776 C 428,1425 229,1071 53,858 L 72,842 C 186,901 295,969 397,1053 L 397,377 53,377 70,319 1026,319 1026,-193 1087,-193 C 1255,-193 1350,-129 1352,-111 L 1352,319 1937,319 C 1968,319 1993,330 1999,352 1886,444 1704,580 1704,580 L 1542,377 1352,377 1352,887 1837,887 C 1868,887 1890,897 1896,920 1792,1006 1620,1133 1620,1133 L 1468,944 1352,944 1352,1358 1909,1358 C 1939,1358 1964,1368 1968,1391 1853,1487 1675,1616 1675,1616 L 1513,1415 741,1415 C 780,1468 817,1526 854,1587 903,1583 932,1599 942,1626 L 537,1776 Z M 1026,377 L 713,377 713,887 1026,887 1026,377 Z M 1026,944 L 741,944 412,1065 C 514,1147 608,1245 698,1358 L 1026,1358 1026,944 Z"
   id="glyph16656" />

   <glyph
   unicode="9"
   horiz-adv-x="1119"
   d="M 219,-41 C 788,63 1171,422 1171,911 1171,1321 971,1565 612,1565 326,1565 80,1391 80,1047 80,758 272,594 539,594 655,594 750,627 815,676 754,340 565,141 207,18 L 219,-41 Z M 825,739 C 778,705 731,690 668,690 506,690 406,840 406,1092 406,1374 504,1495 621,1495 748,1495 838,1362 838,956 838,879 834,807 825,739 Z"
   id="glyph16658" />

   <glyph
   unicode="8"
   horiz-adv-x="1067"
   d="M 596,-35 C 956,-35 1149,139 1149,403 1149,598 1036,743 791,860 1012,954 1098,1075 1098,1210 1098,1399 954,1565 639,1565 352,1565 139,1401 139,1147 139,956 242,803 446,700 225,623 109,498 109,322 109,117 264,-35 596,-35 Z M 743,883 C 469,1004 416,1133 416,1260 416,1403 518,1493 631,1493 762,1493 838,1380 838,1221 838,1085 811,983 743,883 Z M 496,678 C 772,557 852,432 852,281 852,127 772,37 623,37 469,37 379,139 379,360 379,494 412,584 496,678 Z"
   id="glyph16660" />

   <glyph
   unicode="7"
   horiz-adv-x="1017"
   d="M 299,0 L 571,0 1104,1372 1104,1530 123,1530 123,1276 971,1276 279,20 299,0 Z"
   id="glyph16662" />

   <glyph
   unicode="6"
   horiz-adv-x="1119"
   d="M 649,-35 C 977,-35 1174,184 1174,473 1174,745 1026,936 758,936 627,936 514,893 428,811 477,1159 705,1423 1092,1513 L 1081,1565 C 487,1511 82,1096 82,592 82,197 303,-35 649,-35 Z M 420,741 C 485,799 557,819 629,819 774,819 850,690 850,442 850,156 764,37 651,37 512,37 418,223 418,662 L 420,741 Z"
   id="glyph16664" />

   <glyph
   unicode="5"
   horiz-adv-x="1118"
   d="M 551,-35 C 901,-35 1155,133 1155,449 1155,754 942,913 596,913 498,913 408,903 319,877 L 348,1276 1102,1276 1102,1530 264,1530 215,809 276,768 C 348,791 416,803 494,803 684,803 805,670 805,434 805,174 680,37 492,37 446,37 416,41 383,53 L 354,256 C 342,377 293,422 209,422 152,422 98,391 76,330 92,107 264,-35 551,-35 Z"
   id="glyph16666" />

   <glyph
   unicode="4"
   horiz-adv-x="1169"
   d="M 682,-31 L 975,-31 975,346 1198,346 1198,559 975,559 975,1556 745,1556 68,518 68,346 682,346 682,-31 Z M 178,559 L 451,979 682,1337 682,559 178,559 Z"
   id="glyph16668" />

   <glyph
   unicode="3"
   horiz-adv-x="1093"
   d="M 580,-35 C 930,-35 1145,137 1145,387 1145,602 1030,758 707,807 991,864 1098,1014 1098,1202 1098,1413 944,1565 621,1565 371,1565 156,1460 150,1214 172,1176 213,1151 264,1151 336,1151 399,1186 418,1290 L 457,1489 C 481,1493 504,1495 524,1495 680,1495 772,1393 772,1190 772,946 651,836 471,836 L 401,836 401,756 481,756 C 690,756 801,627 801,385 801,156 684,37 473,37 444,37 420,39 397,45 L 365,246 C 346,383 295,424 213,424 160,424 107,395 84,330 102,100 268,-35 580,-35 Z"
   id="glyph16670" />

   <glyph
   unicode="2"
   horiz-adv-x="1067"
   d="M 121,0 L 1149,0 1149,252 287,252 C 383,336 477,414 543,467 924,766 1112,926 1112,1147 1112,1391 963,1565 639,1565 367,1565 129,1436 117,1192 139,1139 190,1104 250,1104 313,1104 381,1137 403,1276 L 444,1487 C 471,1493 498,1495 524,1495 682,1495 778,1376 778,1167 778,944 678,809 455,557 354,442 240,313 121,184 L 121,0 Z"
   id="glyph16672" />

   <glyph
   unicode="1"
   horiz-adv-x="839"
   d="M 98,0 L 889,-6 889,55 676,102 C 672,231 670,360 670,485 L 670,1200 678,1534 647,1554 94,1430 94,1356 334,1384 334,485 330,100 98,63 98,0 Z"
   id="glyph16674" />

   <glyph
   unicode="0"
   horiz-adv-x="1119"
   d="M 627,-35 C 909,-35 1167,209 1167,768 1167,1323 909,1565 627,1565 342,1565 88,1323 88,768 88,209 342,-35 627,-35 Z M 627,37 C 504,37 401,193 401,768 401,1339 504,1493 627,1493 748,1493 854,1337 854,768 854,195 748,37 627,37 Z"
   id="glyph16676" />

  </font>
    <g
       ooo:slide="id1"
       ooo:id-list="id3"
       id="g16681" />
    <g
       id="bullet-char-template-57356-7"
       transform="matrix(4.8828125e-4,0,0,-4.8828125e-4,0,0)">
   <path
   d="M 580,1141 1163,571 580,0 -4,571 Z"
   id="path16685" />

  </g>
    <g
       id="bullet-char-template-57354-7"
       transform="matrix(4.8828125e-4,0,0,-4.8828125e-4,0,0)">
   <path
   d="M 8,1128 H 1137 V 0 H 8 Z"
   id="path16688" />

  </g>
    <g
       id="bullet-char-template-10146-11"
       transform="matrix(4.8828125e-4,0,0,-4.8828125e-4,0,0)">
   <path
   d="M 174,0 602,739 174,1481 1456,739 Z M 1358,739 309,1346 659,739 Z"
   id="path16691" />

  </g>
    <g
       id="bullet-char-template-10132-59"
       transform="matrix(4.8828125e-4,0,0,-4.8828125e-4,0,0)">
   <path
   d="M 2015,739 1276,0 H 717 l 543,543 H 174 v 393 h 1086 l -543,545 h 557 z"
   id="path16694" />

  </g>
    <g
       id="bullet-char-template-10007-7"
       transform="matrix(4.8828125e-4,0,0,-4.8828125e-4,0,0)">
   <path
   d="m 0,-2 c -7,16 -16,29 -25,39 l 381,530 c -94,256 -141,385 -141,387 0,25 13,38 40,38 9,0 21,-2 34,-5 21,4 42,12 65,25 l 27,-13 111,-251 280,301 64,-25 24,25 c 21,-10 41,-24 62,-43 C 886,937 835,863 770,784 769,783 710,716 594,584 L 774,223 c 0,-27 -21,-55 -63,-84 l 16,-20 C 717,90 699,76 672,76 641,76 570,178 457,381 L 164,-76 c -22,-34 -53,-51 -92,-51 -42,0 -63,17 -64,51 -7,9 -10,24 -10,44 0,9 1,19 2,30 z"
   id="path16697" />

  </g>
    <g
       id="bullet-char-template-10004-76"
       transform="matrix(4.8828125e-4,0,0,-4.8828125e-4,0,0)">
   <path
   d="M 285,-33 C 182,-33 111,30 74,156 52,228 41,333 41,471 c 0,78 14,145 41,201 34,71 87,106 158,106 53,0 88,-31 106,-94 l 23,-176 c 8,-64 28,-97 59,-98 l 735,706 c 11,11 33,17 66,17 42,0 63,-15 63,-46 V 965 c 0,-36 -10,-64 -30,-84 L 442,47 C 390,-6 338,-33 285,-33 Z"
   id="path16700" />

  </g>
    <g
       id="bullet-char-template-9679-73"
       transform="matrix(4.8828125e-4,0,0,-4.8828125e-4,0,0)">
   <path
   d="M 813,0 C 632,0 489,54 383,161 276,268 223,411 223,592 c 0,181 53,324 160,431 106,107 249,161 430,161 179,0 323,-54 432,-161 108,-107 162,-251 162,-431 0,-180 -54,-324 -162,-431 C 1136,54 992,0 813,0 Z"
   id="path16703" />

  </g>
    <g
       id="bullet-char-template-8226-6"
       transform="matrix(4.8828125e-4,0,0,-4.8828125e-4,0,0)">
   <path
   d="m 346,457 c -73,0 -137,26 -191,78 -54,51 -81,114 -81,188 0,73 27,136 81,188 54,52 118,78 191,78 73,0 134,-26 185,-79 51,-51 77,-114 77,-187 0,-75 -25,-137 -76,-188 -50,-52 -112,-78 -186,-78 z"
   id="path16706" />

  </g>
    <g
       id="bullet-char-template-8211-5"
       transform="matrix(4.8828125e-4,0,0,-4.8828125e-4,0,0)">
   <path
   d="M -4,459 H 1135 V 606 H -4 Z"
   id="path16709" />

  </g>
    <g
       id="bullet-char-template-61548-63"
       transform="matrix(4.8828125e-4,0,0,-4.8828125e-4,0,0)">
   <path
   d="m 173,740 c 0,163 58,303 173,419 116,115 255,173 419,173 163,0 302,-58 418,-173 116,-116 174,-256 174,-419 0,-163 -58,-303 -174,-418 C 1067,206 928,148 765,148 601,148 462,206 346,322 231,437 173,577 173,740 Z"
   id="path16712" />

  </g>
    <clipPath
       id="clip_path_1-9"
       clipPathUnits="userSpaceOnUse">
          <path
   d="m 5801,9432 h 9773 V 20569 H 5801 Z"
   id="path16724" />

         </clipPath>
    <clipPath
       id="clip_path_2-48"
       clipPathUnits="userSpaceOnUse">
          <path
   d="m 8839,9728 h 2515 v 1092 H 8839 Z"
   id="path17075" />

         </clipPath>
    <clipPath
       id="clip_path_3-12"
       clipPathUnits="userSpaceOnUse">
          <path
   d="m 5801,9432 h 9773 V 20569 H 5801 Z"
   id="path17100" />

         </clipPath>
    <clipPath
       id="clip_path_4-9"
       clipPathUnits="userSpaceOnUse">
          <path
   d="m 5801,9432 h 9773 V 20569 H 5801 Z"
   id="path17115" />

         </clipPath>
    <clipPath
       id="clip_path_5-3"
       clipPathUnits="userSpaceOnUse">
          <path
   d="m 5801,9432 h 9773 V 20569 H 5801 Z"
   id="path17122" />

         </clipPath>
    <clipPath
       id="presentation_clip_path-90"
       clipPathUnits="userSpaceOnUse">
   <rect
   x="0"
   y="0"
   width="21000"
   height="29700"
   id="rect19915" />

  </clipPath>
    <clipPath
       id="presentation_clip_path_shrink-88"
       clipPathUnits="userSpaceOnUse">
   <rect
   x="21"
   y="29"
   width="20958"
   height="29641"
   id="rect19918" />

  </clipPath>
    <font
       id="EmbeddedFont_1-5"
       horiz-adv-x="2048"
       horiz-origin-x="0"
       horiz-origin-y="0"
       vert-origin-x="512"
       vert-origin-y="768"
       vert-adv-y="1024">
   <font-face
   font-family="Noto Serif CJK JP embedded"
   units-per-em="2048"
   font-weight="normal"
   font-style="normal"
   ascent="2362"
   descent="584"
   id="font-face19923" />

   <missing-glyph
   horiz-adv-x="2048"
   d="M 0,0 L 2047,0 2047,2047 0,2047 0,0 Z"
   id="missing-glyph19925" />

   <glyph
   unicode="誕"
   horiz-adv-x="1957"
   d="M 156,1581 L 172,1524 657,1524 C 684,1524 705,1534 709,1556 649,1614 553,1692 553,1692 L 467,1581 156,1581 Z M 156,1065 L 172,1006 651,1006 C 680,1006 700,1016 707,1036 649,1092 559,1163 559,1163 L 481,1065 156,1065 Z M 156,803 L 172,743 651,743 C 680,743 700,754 707,776 649,829 559,901 559,901 L 481,803 156,803 Z M 74,1325 L 90,1266 733,1266 C 758,1266 778,1276 782,1296 723,1356 623,1436 623,1436 L 539,1325 74,1325 Z M 1782,1681 C 1647,1597 1372,1489 1151,1430 L 1161,1397 C 1272,1409 1387,1432 1497,1456 L 1497,262 1354,262 1354,1122 C 1399,1131 1417,1151 1423,1176 L 1239,1198 1239,262 1098,262 1114,203 1929,203 C 1958,203 1974,213 1980,233 1921,295 1819,379 1819,379 L 1731,262 1618,262 1618,883 1888,883 C 1915,883 1935,891 1942,913 1880,975 1784,1057 1784,1057 L 1698,942 1618,942 1618,1485 C 1700,1505 1776,1528 1837,1548 1884,1532 1919,1530 1937,1548 L 1782,1681 Z M 786,666 L 756,649 C 793,494 838,369 893,268 836,119 752,-16 625,-129 L 645,-160 C 784,-66 883,47 952,174 1112,-43 1343,-109 1677,-109 1731,-109 1845,-109 1899,-109 1901,-55 1925,-12 1972,-6 L 1972,25 C 1894,20 1757,20 1692,20 1374,20 1151,74 991,252 1079,446 1112,664 1133,881 1171,885 1192,891 1206,907 L 1061,1034 989,954 905,954 C 963,1126 1024,1317 1055,1432 1098,1436 1135,1446 1149,1460 L 999,1587 932,1513 715,1513 733,1454 936,1454 C 885,1276 807,1016 735,817 791,801 825,801 856,813 L 885,895 1006,895 C 993,707 973,520 920,348 868,432 823,537 786,666 Z M 532,479 L 532,92 287,92 287,479 532,479 Z M 164,539 L 164,-152 182,-152 C 233,-152 287,-123 287,-111 L 287,33 532,33 532,-70 551,-70 C 594,-70 653,-41 655,-27 L 655,459 C 694,467 727,481 741,496 L 584,616 512,539 295,539 164,600 164,539 Z"
   id="glyph19927" />

   <glyph
   unicode="記"
   horiz-adv-x="1906"
   d="M 174,1575 L 190,1516 801,1516 C 829,1516 848,1526 854,1548 791,1606 690,1686 690,1686 L 602,1575 174,1575 Z M 174,1051 L 190,991 803,991 C 831,991 850,1001 856,1024 797,1079 705,1153 705,1153 L 623,1051 174,1051 Z M 174,791 L 190,731 803,731 C 831,731 850,741 856,762 797,819 705,893 705,893 L 623,791 174,791 Z M 72,1311 L 86,1251 922,1251 C 950,1251 969,1262 975,1284 911,1343 807,1425 807,1425 L 717,1311 72,1311 Z M 659,473 L 659,43 319,43 319,473 659,473 Z M 195,532 L 195,-160 211,-160 C 264,-160 319,-129 319,-117 L 319,-16 659,-16 659,-115 680,-115 C 723,-115 784,-82 786,-68 L 786,451 C 827,459 860,475 872,489 L 713,612 639,532 330,532 195,596 195,532 Z M 1014,909 L 1014,45 C 1014,-70 1055,-102 1235,-102 L 1499,-102 C 1870,-102 1946,-82 1946,-16 1946,10 1931,25 1882,41 L 1878,360 1851,360 C 1825,219 1800,92 1784,53 1776,33 1765,25 1737,23 1702,18 1616,16 1503,16 L 1253,16 C 1159,16 1145,31 1145,72 L 1145,850 1669,850 1669,754 1690,754 C 1735,754 1800,788 1802,801 L 1802,1473 C 1843,1481 1876,1497 1890,1513 L 1724,1640 1651,1559 991,1559 1010,1499 1669,1499 1669,909 1171,909 1014,979 1014,909 Z"
   id="glyph19929" />

   <glyph
   unicode="皇"
   horiz-adv-x="1880"
   d="M 276,602 L 293,541 956,541 956,291 319,291 336,229 956,229 956,-49 117,-49 133,-109 1892,-109 C 1921,-109 1942,-98 1948,-76 1876,-12 1763,78 1763,78 L 1665,-49 1090,-49 1090,229 1714,229 C 1741,229 1761,240 1767,262 1700,326 1591,408 1591,408 L 1497,291 1090,291 1090,541 1747,541 C 1776,541 1796,551 1802,573 1733,637 1622,721 1622,721 L 1526,602 276,602 Z M 543,1417 L 1509,1417 1509,1180 543,1180 543,1417 Z M 909,1718 L 842,1477 569,1477 412,1546 412,715 432,715 C 500,715 543,750 543,760 L 543,813 1509,813 1509,737 1530,737 C 1575,737 1643,768 1645,780 L 1645,1393 C 1686,1401 1716,1417 1731,1432 L 1565,1561 1489,1477 926,1477 1065,1624 C 1106,1624 1135,1638 1143,1669 L 909,1718 Z M 543,1120 L 1509,1120 1509,875 543,875 543,1120 Z"
   id="glyph19931" />

   <glyph
   unicode="生"
   horiz-adv-x="1931"
   d="M 528,1645 C 430,1278 252,926 72,707 L 100,686 C 244,807 375,969 487,1161 L 948,1161 948,641 317,641 334,582 948,582 948,-14 86,-14 102,-72 1915,-72 C 1944,-72 1962,-61 1968,-41 1892,27 1772,119 1772,119 L 1665,-14 1087,-14 1087,582 1718,582 C 1747,582 1767,592 1774,614 1700,680 1581,772 1581,772 L 1477,641 1087,641 1087,1161 1792,1161 C 1821,1161 1841,1169 1847,1192 1772,1264 1657,1348 1657,1348 L 1550,1221 1087,1221 1087,1632 C 1139,1640 1155,1661 1161,1690 L 948,1712 948,1221 520,1221 C 575,1319 623,1425 666,1536 711,1534 735,1552 743,1575 L 528,1645 Z"
   id="glyph19933" />

   <glyph
   unicode="替"
   horiz-adv-x="1906"
   d="M 107,1204 L 123,1145 475,1145 C 430,946 324,786 78,659 L 104,625 C 369,733 502,872 569,1042 666,979 778,875 815,784 954,715 1016,987 582,1075 L 602,1145 954,1145 C 981,1145 1001,1155 1006,1176 942,1235 842,1315 842,1315 L 754,1204 614,1204 C 627,1270 633,1337 637,1409 L 940,1409 C 969,1409 987,1419 993,1440 930,1499 834,1577 834,1577 L 748,1468 639,1468 645,1640 C 688,1647 707,1667 711,1694 L 512,1712 510,1468 127,1468 143,1409 508,1409 C 504,1337 498,1268 487,1204 L 107,1204 Z M 1458,289 L 1458,31 600,31 600,289 1458,289 Z M 1458,348 L 600,348 600,602 1458,602 1458,348 Z M 467,662 L 467,-156 487,-156 C 545,-156 600,-125 600,-111 L 600,-31 1458,-31 1458,-143 1479,-143 C 1522,-143 1589,-113 1591,-98 L 1591,575 C 1632,584 1665,600 1679,616 L 1511,743 1438,662 612,662 467,727 467,662 Z M 1014,1204 L 1028,1145 1303,1145 C 1255,977 1153,842 934,735 L 961,700 C 1245,809 1372,952 1430,1135 1509,926 1659,770 1853,672 1872,733 1909,770 1958,780 L 1960,799 C 1759,862 1575,981 1475,1145 L 1901,1145 C 1927,1145 1948,1155 1954,1176 1888,1237 1784,1319 1784,1319 L 1692,1204 1448,1204 C 1462,1268 1468,1337 1475,1409 L 1866,1409 C 1894,1409 1913,1419 1919,1440 1855,1501 1753,1581 1753,1581 L 1665,1468 1477,1468 1483,1640 C 1526,1647 1544,1669 1548,1694 L 1346,1712 1343,1468 1030,1468 1047,1409 1341,1409 C 1337,1335 1331,1268 1317,1204 L 1014,1204 Z"
   id="glyph19935" />

   <glyph
   unicode="日"
   horiz-adv-x="1348"
   d="M 1505,758 L 1505,98 549,98 549,758 1505,758 Z M 1505,819 L 549,819 549,1454 1505,1454 1505,819 Z M 414,1513 L 414,-143 438,-143 C 500,-143 549,-109 549,-88 L 549,39 1505,39 1505,-133 1526,-133 C 1575,-133 1643,-96 1645,-82 L 1645,1427 C 1686,1436 1718,1452 1733,1468 L 1563,1602 1485,1513 563,1513 414,1583 414,1513 Z"
   id="glyph19937" />

   <glyph
   unicode="振"
   horiz-adv-x="1982"
   d="M 1020,1223 L 1036,1161 1802,1161 C 1831,1161 1847,1171 1853,1194 1790,1255 1688,1337 1688,1337 L 1595,1223 1020,1223 Z M 1804,766 C 1753,680 1638,532 1542,426 1475,547 1425,682 1389,825 L 1919,825 C 1948,825 1966,836 1972,858 1905,920 1796,1008 1796,1008 L 1704,887 915,887 918,1026 918,1497 1905,1497 C 1933,1497 1952,1507 1958,1530 1890,1591 1782,1679 1782,1679 L 1688,1559 942,1559 786,1624 786,1024 C 786,631 762,213 543,-123 L 575,-145 C 838,127 899,500 913,825 L 1069,825 1069,70 C 965,43 879,23 823,12 L 930,-150 C 948,-141 963,-127 971,-98 1223,8 1409,96 1536,158 L 1528,190 1196,102 1196,825 1348,825 C 1423,363 1571,31 1882,-158 1901,-86 1948,-41 1999,-31 L 2003,-10 C 1817,66 1669,211 1561,393 1686,467 1825,569 1894,633 1935,619 1968,635 1976,653 L 1804,766 Z M 51,647 L 125,477 C 145,483 162,502 168,528 L 371,631 371,49 C 371,18 360,8 326,8 291,8 113,20 113,20 L 113,-12 C 193,-23 236,-37 264,-59 289,-82 299,-119 305,-160 481,-139 500,-74 500,37 L 500,698 760,840 750,868 500,784 500,1188 727,1188 C 756,1188 772,1198 778,1221 723,1282 629,1364 629,1364 L 545,1247 500,1247 500,1638 C 551,1645 571,1665 575,1694 L 371,1716 371,1247 84,1247 100,1188 371,1188 371,743 C 231,696 115,662 51,647 Z"
   id="glyph19939" />

   <glyph
   unicode="念"
   horiz-adv-x="2058"
   d="M 1044,1616 C 1208,1348 1509,1131 1870,989 1884,1042 1923,1094 1987,1112 L 1991,1145 C 1616,1237 1280,1419 1079,1638 1137,1643 1157,1655 1165,1677 L 934,1737 C 793,1464 438,1157 61,985 L 74,952 C 494,1094 858,1368 1044,1616 Z M 680,1204 L 696,1145 1292,1145 C 1319,1145 1339,1153 1346,1176 1284,1235 1182,1313 1182,1313 L 1094,1204 680,1204 Z M 836,637 L 811,621 C 913,532 1044,379 1079,260 1225,168 1313,475 836,637 Z M 614,524 L 614,27 C 614,-78 649,-107 829,-107 L 1102,-107 C 1477,-107 1546,-86 1546,-23 1546,4 1532,18 1485,33 L 1479,283 1452,283 C 1427,172 1407,76 1391,43 1380,23 1372,18 1343,16 1311,12 1221,12 1106,12 L 848,12 C 758,12 748,18 748,51 L 748,455 C 786,461 805,479 807,502 L 614,524 Z M 371,489 C 369,313 260,170 160,117 117,92 88,49 109,8 135,-39 211,-31 266,8 358,68 467,225 406,489 L 371,489 Z M 1509,508 L 1487,492 C 1622,375 1786,180 1823,23 1987,-92 2089,276 1509,508 Z M 406,967 L 424,905 1362,905 C 1309,801 1231,659 1161,549 1217,520 1257,516 1294,522 1362,633 1452,791 1499,881 1546,883 1581,893 1597,907 L 1448,1042 1374,967 406,967 Z"
   id="glyph19941" />

   <glyph
   unicode="建"
   horiz-adv-x="1957"
   d="M 227,686 L 199,672 C 246,494 301,354 371,246 303,102 207,-25 72,-129 L 88,-160 C 240,-72 350,39 432,162 623,-66 901,-119 1327,-119 1464,-119 1751,-119 1872,-119 1876,-61 1909,-16 1970,-6 L 1970,23 C 1810,18 1485,18 1339,18 940,18 668,53 477,233 588,430 635,651 664,879 707,883 725,887 739,905 L 594,1034 514,954 332,954 C 420,1137 512,1339 563,1462 610,1466 645,1477 659,1493 L 508,1626 434,1548 86,1548 104,1487 430,1487 C 352,1296 231,1016 127,799 178,780 217,778 250,786 L 303,893 528,893 C 510,690 475,494 403,317 332,410 274,530 227,686 Z M 1159,1714 L 1159,1499 770,1499 788,1438 1159,1438 1159,1229 608,1229 625,1167 1159,1167 1159,954 764,954 782,895 1159,895 1159,684 735,684 752,625 1159,625 1159,408 639,408 655,348 1159,348 1159,74 1184,74 C 1235,74 1290,102 1290,119 L 1290,348 1874,348 C 1905,348 1925,358 1929,379 1862,442 1751,526 1751,526 L 1655,408 1290,408 1290,625 1774,625 C 1802,625 1823,633 1829,655 1765,717 1665,795 1665,795 L 1577,684 1290,684 1290,895 1593,895 1593,829 1612,829 C 1655,829 1718,860 1720,875 L 1720,1167 1942,1167 C 1970,1167 1989,1178 1993,1200 1939,1262 1843,1343 1843,1343 L 1761,1229 1720,1229 1720,1415 C 1761,1423 1794,1438 1808,1454 L 1647,1577 1573,1499 1290,1499 1290,1636 C 1341,1645 1358,1665 1362,1694 L 1159,1714 Z M 1290,1438 L 1593,1438 1593,1229 1290,1229 1290,1438 Z M 1290,954 L 1290,1167 1593,1167 1593,954 1290,954 Z"
   id="glyph19943" />

   <glyph
   unicode="天"
   horiz-adv-x="1932"
   d="M 182,922 L 201,862 881,862 C 823,461 645,137 80,-119 L 107,-156 C 758,88 958,424 1026,862 L 1051,862 C 1112,506 1278,92 1835,-166 1851,-90 1899,-63 1970,-55 L 1976,-33 C 1384,190 1167,532 1092,862 L 1823,862 C 1849,862 1870,872 1876,893 1804,958 1686,1049 1686,1049 L 1581,922 1034,922 C 1055,1085 1059,1264 1061,1454 L 1888,1454 C 1917,1454 1939,1464 1946,1487 1870,1554 1751,1645 1751,1645 L 1645,1516 113,1516 131,1454 911,1454 C 909,1264 907,1085 889,922 L 182,922 Z"
   id="glyph19945" />

   <glyph
   unicode="国"
   horiz-adv-x="1754"
   d="M 1210,745 L 1188,731 C 1253,664 1331,551 1350,465 1462,379 1567,614 1210,745 Z M 557,858 L 573,797 948,797 948,342 432,342 449,283 1591,283 C 1620,283 1638,293 1645,315 1581,375 1483,455 1483,455 L 1393,342 1075,342 1075,797 1485,797 C 1513,797 1532,807 1538,829 1479,889 1382,965 1382,965 L 1298,858 1075,858 1075,1225 1542,1225 C 1569,1225 1587,1235 1593,1257 1532,1317 1432,1397 1432,1397 L 1343,1286 475,1286 492,1225 948,1225 948,858 557,858 Z M 203,1593 L 203,-160 227,-160 C 287,-160 336,-125 336,-104 L 336,-14 1710,-14 1710,-150 1729,-150 C 1778,-150 1843,-111 1845,-96 L 1845,1507 C 1884,1516 1919,1532 1933,1550 L 1765,1681 1690,1593 350,1593 203,1665 203,1593 Z M 1710,47 L 336,47 336,1534 1710,1534 1710,47 Z"
   id="glyph19947" />

   <glyph
   unicode="休"
   horiz-adv-x="1982"
   d="M 1188,1688 L 1188,1198 625,1198 641,1139 1102,1139 C 1001,774 813,414 547,158 L 575,131 C 854,342 1059,621 1188,942 L 1188,-152 1214,-152 C 1266,-152 1321,-119 1321,-98 L 1321,1110 C 1419,727 1622,371 1882,162 1894,221 1935,266 1993,287 L 1999,309 C 1729,479 1470,788 1362,1139 L 1901,1139 C 1929,1139 1948,1149 1954,1169 1884,1235 1774,1321 1774,1321 L 1675,1198 1321,1198 1321,1608 C 1374,1616 1391,1636 1395,1665 L 1188,1688 Z M 537,1716 C 432,1319 244,924 61,674 L 90,653 C 193,752 291,872 379,1012 L 379,-156 403,-156 C 457,-156 510,-123 512,-113 L 512,1071 C 549,1077 569,1090 578,1108 L 463,1151 C 543,1292 612,1446 672,1608 717,1606 743,1624 752,1649 L 537,1716 Z"
   id="glyph19949" />

   <glyph
   unicode="の"
   horiz-adv-x="1652"
   d="M 1008,1350 L 1081,1354 C 1419,1354 1690,1120 1690,756 1690,385 1448,127 946,39 L 954,-8 C 1624,35 1837,383 1837,723 1837,1147 1511,1423 1090,1423 870,1423 659,1354 492,1204 317,1049 219,836 219,629 219,377 363,160 500,160 709,160 946,557 1032,803 1073,920 1096,1034 1096,1133 1096,1212 1055,1284 1008,1350 Z M 932,1337 C 967,1276 989,1223 989,1149 989,1057 954,932 915,834 831,639 643,315 508,315 424,315 334,465 334,662 334,842 414,1008 545,1135 649,1237 788,1309 932,1337 Z"
   id="glyph19951" />

  </font>
    <font
       id="EmbeddedFont_2-09"
       horiz-adv-x="2048"
       horiz-origin-x="0"
       horiz-origin-y="0"
       vert-origin-x="512"
       vert-origin-y="768"
       vert-adv-y="1024">
   <font-face
   font-family="Noto Serif CJK JP Black embedded"
   units-per-em="2048"
   font-weight="normal"
   font-style="normal"
   ascent="2362"
   descent="584"
   id="font-face19956" />

   <missing-glyph
   horiz-adv-x="2048"
   d="M 0,0 L 2047,0 2047,2047 0,2047 0,0 Z"
   id="missing-glyph19958" />

   <glyph
   unicode="金"
   horiz-adv-x="2033"
   d="M 399,520 L 381,512 C 424,389 455,240 444,92 678,-152 1004,311 399,520 Z M 1352,535 C 1315,356 1266,150 1231,27 L 1253,12 C 1382,98 1528,227 1649,358 1696,356 1724,373 1733,399 L 1352,535 Z M 1126,1565 C 1239,1214 1501,989 1790,831 1810,952 1896,1096 2030,1135 L 2032,1167 C 1743,1229 1346,1337 1157,1589 1233,1597 1262,1610 1270,1640 L 825,1757 C 750,1458 383,1012 33,770 L 45,750 C 205,809 371,895 526,997 L 541,946 840,946 840,653 195,653 211,596 840,596 840,-59 90,-59 107,-117 1911,-117 C 1942,-117 1966,-107 1972,-84 1862,12 1675,154 1675,154 L 1511,-59 1149,-59 1149,596 1812,596 C 1843,596 1866,606 1872,629 1772,717 1602,848 1602,848 L 1454,653 1149,653 1149,946 1450,946 C 1479,946 1501,956 1507,979 1413,1061 1260,1178 1260,1178 L 1122,1004 537,1004 C 782,1165 999,1364 1126,1565 Z"
   id="glyph19960" />

   <glyph
   unicode="火"
   horiz-adv-x="2033"
   d="M 457,1417 C 467,1202 358,1020 258,954 180,899 141,811 188,717 246,619 383,594 475,684 604,803 666,1055 475,1419 L 457,1417 Z M 1585,1399 C 1522,1241 1378,975 1249,784 1163,1004 1122,1276 1106,1614 L 1106,1645 C 1157,1653 1178,1671 1184,1704 L 774,1741 C 774,903 834,309 41,-166 L 57,-193 C 897,90 1055,532 1092,1122 1141,465 1284,31 1755,-195 1786,-37 1878,72 2021,102 L 2023,125 C 1626,246 1397,440 1264,750 1489,862 1708,1022 1860,1145 1911,1137 1931,1151 1939,1171 L 1585,1399 Z"
   id="glyph19962" />

   <glyph
   unicode="水"
   horiz-adv-x="2008"
   d="M 1643,1417 C 1583,1284 1462,1065 1346,895 1270,1036 1208,1208 1174,1417 L 1174,1657 C 1227,1665 1241,1683 1245,1712 L 870,1749 870,1104 655,1286 512,1137 86,1137 104,1079 528,1079 C 471,690 322,285 33,27 L 49,6 C 522,233 735,629 829,1036 848,1038 860,1040 870,1042 L 870,170 C 870,145 858,133 823,133 770,133 512,150 512,150 L 512,123 C 637,100 684,68 725,23 766,-25 780,-92 788,-190 1126,-162 1174,-53 1174,150 L 1174,1282 C 1255,608 1430,283 1737,10 1778,147 1868,254 1991,279 L 2001,301 C 1776,403 1544,559 1376,838 1571,940 1761,1073 1892,1176 1944,1169 1964,1182 1974,1202 L 1643,1417 Z"
   id="glyph19964" />

   <glyph
   unicode="木"
   horiz-adv-x="2008"
   d="M 1686,1475 L 1520,1264 1171,1264 1165,1262 1165,1653 C 1223,1661 1237,1683 1241,1712 L 858,1749 858,1264 80,1264 96,1206 725,1206 C 621,788 383,326 49,37 L 68,18 C 412,193 674,430 858,715 L 858,-195 915,-195 C 1032,-195 1165,-119 1165,-90 L 1165,1171 C 1260,639 1425,274 1731,39 1778,184 1876,283 1993,305 L 2001,330 C 1667,477 1350,782 1192,1206 L 1925,1206 C 1956,1206 1980,1217 1987,1239 1874,1333 1686,1475 1686,1475 Z"
   id="glyph19966" />

   <glyph
   unicode="月"
   horiz-adv-x="1678"
   d="M 1343,1497 L 1343,1100 758,1100 758,1497 1343,1497 Z M 457,1554 L 457,911 C 457,506 418,121 84,-184 L 98,-199 C 541,-10 688,276 735,571 L 1343,571 1343,178 C 1343,150 1333,133 1298,133 1245,133 985,147 985,147 L 985,123 C 1110,98 1159,66 1200,20 1239,-25 1253,-96 1262,-197 1604,-166 1651,-55 1651,143 L 1651,1450 C 1694,1458 1718,1477 1731,1493 L 1458,1708 1323,1554 803,1554 457,1669 457,1554 Z M 1343,1042 L 1343,629 743,629 C 756,725 758,819 758,913 L 758,1042 1343,1042 Z"
   id="glyph19968" />

   <glyph
   unicode="日"
   horiz-adv-x="1474"
   d="M 1405,762 L 1405,86 672,86 672,762 1405,762 Z M 1405,819 L 672,819 672,1466 1405,1466 1405,819 Z M 358,1524 L 358,-184 410,-184 C 545,-184 672,-109 672,-70 L 672,29 1405,29 1405,-164 1456,-164 C 1575,-164 1724,-92 1729,-70 L 1729,1417 C 1769,1427 1792,1444 1806,1462 L 1530,1683 1384,1524 690,1524 358,1655 358,1524 Z"
   id="glyph19970" />

   <glyph
   unicode="土"
   horiz-adv-x="1982"
   d="M 182,995 L 199,938 852,938 852,-27 51,-27 68,-84 1939,-84 C 1970,-84 1995,-74 2001,-51 1884,47 1692,193 1692,193 L 1520,-27 1169,-27 1169,938 1825,938 C 1855,938 1880,948 1884,971 1774,1067 1587,1206 1587,1206 L 1421,995 1169,995 1169,1655 C 1227,1663 1241,1683 1245,1716 L 852,1751 852,995 182,995 Z"
   id="glyph19972" />

   <glyph
   unicode="©"
   horiz-adv-x="1626"
   d="M 868,-41 C 1292,-41 1663,274 1663,766 1663,1260 1292,1571 868,1571 440,1571 70,1260 70,766 70,274 440,-41 868,-41 Z M 868,37 C 487,37 170,322 170,766 170,1210 487,1493 868,1493 1249,1493 1567,1208 1567,766 1567,326 1249,37 868,37 Z M 909,285 C 1026,285 1118,315 1194,360 L 1200,598 1116,598 1055,363 C 1024,354 993,350 963,350 799,350 668,494 668,768 668,1042 797,1190 965,1190 993,1190 1020,1188 1047,1180 L 1110,940 1190,940 1186,1184 C 1106,1227 1032,1253 920,1253 659,1253 434,1083 434,766 434,455 645,285 909,285 Z"
   id="glyph19974" />

   <glyph
   unicode="y"
   horiz-adv-x="1271"
   d="M 797,1057 L 999,1036 862,610 731,250 446,1038 610,1057 610,1118 -14,1118 -14,1057 90,1047 582,-127 C 522,-264 467,-356 395,-420 L 363,-377 C 311,-311 252,-262 170,-262 90,-262 10,-303 -6,-395 0,-494 107,-555 221,-555 395,-555 530,-442 666,-84 L 1083,1038 1219,1057 1219,1118 797,1118 797,1057 Z"
   id="glyph19976" />

   <glyph
   unicode="t"
   horiz-adv-x="814"
   d="M 512,-35 C 670,-35 772,25 834,135 L 801,168 C 745,123 711,102 659,102 578,102 526,150 526,260 L 526,1034 778,1034 778,1118 526,1118 528,1450 317,1450 211,1118 29,1100 29,1034 195,1034 195,510 C 195,426 193,367 193,285 193,59 303,-35 512,-35 Z"
   id="glyph19978" />

   <glyph
   unicode="s"
   horiz-adv-x="941"
   d="M 487,-35 C 799,-35 987,104 987,344 987,512 893,625 678,690 L 557,727 C 397,774 356,836 356,909 356,1012 438,1075 565,1075 625,1075 668,1065 711,1044 L 788,803 905,803 920,1061 C 799,1120 694,1153 557,1153 256,1153 88,997 88,782 88,608 197,502 381,446 L 500,408 C 664,360 702,299 702,213 702,100 616,45 461,45 395,45 344,55 291,76 L 229,346 98,346 82,68 C 203,0 328,-35 487,-35 Z"
   id="glyph19980" />

   <glyph
   unicode="p"
   horiz-adv-x="1296"
   d="M 840,-35 C 1112,-35 1339,193 1339,565 1339,944 1141,1153 889,1153 754,1153 633,1106 539,999 L 522,1131 496,1151 55,1022 55,973 207,956 C 211,858 213,788 213,655 L 213,-14 209,-457 72,-471 72,-530 702,-530 702,-471 545,-453 541,-12 541,109 C 625,10 725,-35 840,-35 Z M 545,938 C 612,999 666,1012 727,1012 889,1012 983,897 983,563 983,221 875,111 715,111 647,111 596,121 545,162 L 545,938 Z"
   id="glyph19982" />

   <glyph
   unicode="o"
   horiz-adv-x="1195"
   d="M 651,-35 C 1001,-35 1233,199 1233,565 1233,932 975,1153 651,1153 330,1153 72,928 72,565 72,205 299,-35 651,-35 Z M 651,37 C 506,37 424,205 424,561 424,920 506,1081 651,1081 799,1081 879,920 879,561 879,205 799,37 651,37 Z"
   id="glyph19984" />

   <glyph
   unicode="k"
   horiz-adv-x="1347"
   d="M 780,1057 L 985,1032 729,784 545,606 545,1343 553,1673 522,1692 63,1604 63,1548 213,1536 213,487 209,76 72,63 72,0 678,0 678,63 549,76 C 547,193 545,383 545,504 L 545,518 635,602 926,0 1374,0 1374,63 1241,76 866,811 1114,1036 1313,1057 1313,1118 780,1118 780,1057 Z"
   id="glyph19986" />

   <glyph
   unicode="h"
   horiz-adv-x="1347"
   d="M 913,0 L 1380,0 1380,63 1257,74 1253,487 1253,754 C 1253,1032 1120,1153 920,1153 768,1153 659,1092 539,948 L 539,1343 545,1673 518,1692 63,1604 63,1548 213,1536 213,487 209,76 74,63 74,0 666,0 666,63 549,74 C 547,195 545,373 545,487 L 545,887 C 627,961 707,999 772,999 862,999 922,942 922,784 L 922,487 C 922,369 920,195 918,76 L 786,63 786,0 913,0 Z"
   id="glyph19988" />

   <glyph
   unicode=":"
   horiz-adv-x="408"
   d="M 348,-35 C 455,-35 537,49 537,152 537,256 455,342 348,342 242,342 160,256 160,152 160,49 242,-35 348,-35 Z M 348,754 C 455,754 537,838 537,940 537,1044 455,1131 348,1131 242,1131 160,1044 160,940 160,838 242,754 348,754 Z"
   id="glyph19990" />

   <glyph
   unicode="2"
   horiz-adv-x="1067"
   d="M 121,0 L 1149,0 1149,252 287,252 C 383,336 477,414 543,467 924,766 1112,926 1112,1147 1112,1391 963,1565 639,1565 367,1565 129,1436 117,1192 139,1139 190,1104 250,1104 313,1104 381,1137 403,1276 L 444,1487 C 471,1493 498,1495 524,1495 682,1495 778,1376 778,1167 778,944 678,809 455,557 354,442 240,313 121,184 L 121,0 Z"
   id="glyph19992" />

   <glyph
   unicode="1"
   horiz-adv-x="839"
   d="M 98,0 L 889,-6 889,55 676,102 C 672,231 670,360 670,485 L 670,1200 678,1534 647,1554 94,1430 94,1356 334,1384 334,485 330,100 98,63 98,0 Z"
   id="glyph19994" />

   <glyph
   unicode="0"
   horiz-adv-x="1119"
   d="M 627,-35 C 909,-35 1167,209 1167,768 1167,1323 909,1565 627,1565 342,1565 88,1323 88,768 88,209 342,-35 627,-35 Z M 627,37 C 504,37 401,193 401,768 401,1339 504,1493 627,1493 748,1493 854,1337 854,768 854,195 748,37 627,37 Z"
   id="glyph19996" />

   <glyph
   unicode="/"
   horiz-adv-x="788"
   d="M 53,-371 L 197,-371 817,1647 676,1647 53,-371 Z"
   id="glyph19998" />

   <glyph
   unicode="."
   horiz-adv-x="408"
   d="M 348,-35 C 455,-35 537,49 537,152 537,256 455,342 348,342 242,342 160,256 160,152 160,49 242,-35 348,-35 Z"
   id="glyph20000" />

  </font>
    <font
       id="EmbeddedFont_3-6"
       horiz-adv-x="2048"
       horiz-origin-x="0"
       horiz-origin-y="0"
       vert-origin-x="512"
       vert-origin-y="768"
       vert-adv-y="1024">
   <font-face
   font-family="Noto Serif CJK JP Black embedded"
   units-per-em="2048"
   font-weight="bold"
   font-style="normal"
   ascent="2362"
   descent="584"
   id="font-face20005" />

   <missing-glyph
   horiz-adv-x="2048"
   d="M 0,0 L 2047,0 2047,2047 0,2047 0,0 Z"
   id="missing-glyph20007" />

   <glyph
   unicode="年"
   horiz-adv-x="1982"
   d="M 537,1776 C 428,1425 229,1071 53,858 L 72,842 C 186,901 295,969 397,1053 L 397,377 53,377 70,319 1026,319 1026,-193 1087,-193 C 1255,-193 1350,-129 1352,-111 L 1352,319 1937,319 C 1968,319 1993,330 1999,352 1886,444 1704,580 1704,580 L 1542,377 1352,377 1352,887 1837,887 C 1868,887 1890,897 1896,920 1792,1006 1620,1133 1620,1133 L 1468,944 1352,944 1352,1358 1909,1358 C 1939,1358 1964,1368 1968,1391 1853,1487 1675,1616 1675,1616 L 1513,1415 741,1415 C 780,1468 817,1526 854,1587 903,1583 932,1599 942,1626 L 537,1776 Z M 1026,377 L 713,377 713,887 1026,887 1026,377 Z M 1026,944 L 741,944 412,1065 C 514,1147 608,1245 698,1358 L 1026,1358 1026,944 Z"
   id="glyph20009" />

   <glyph
   unicode="9"
   horiz-adv-x="1119"
   d="M 219,-41 C 788,63 1171,422 1171,911 1171,1321 971,1565 612,1565 326,1565 80,1391 80,1047 80,758 272,594 539,594 655,594 750,627 815,676 754,340 565,141 207,18 L 219,-41 Z M 825,739 C 778,705 731,690 668,690 506,690 406,840 406,1092 406,1374 504,1495 621,1495 748,1495 838,1362 838,956 838,879 834,807 825,739 Z"
   id="glyph20011" />

   <glyph
   unicode="8"
   horiz-adv-x="1067"
   d="M 596,-35 C 956,-35 1149,139 1149,403 1149,598 1036,743 791,860 1012,954 1098,1075 1098,1210 1098,1399 954,1565 639,1565 352,1565 139,1401 139,1147 139,956 242,803 446,700 225,623 109,498 109,322 109,117 264,-35 596,-35 Z M 743,883 C 469,1004 416,1133 416,1260 416,1403 518,1493 631,1493 762,1493 838,1380 838,1221 838,1085 811,983 743,883 Z M 496,678 C 772,557 852,432 852,281 852,127 772,37 623,37 469,37 379,139 379,360 379,494 412,584 496,678 Z"
   id="glyph20013" />

   <glyph
   unicode="7"
   horiz-adv-x="1017"
   d="M 299,0 L 571,0 1104,1372 1104,1530 123,1530 123,1276 971,1276 279,20 299,0 Z"
   id="glyph20015" />

   <glyph
   unicode="6"
   horiz-adv-x="1119"
   d="M 649,-35 C 977,-35 1174,184 1174,473 1174,745 1026,936 758,936 627,936 514,893 428,811 477,1159 705,1423 1092,1513 L 1081,1565 C 487,1511 82,1096 82,592 82,197 303,-35 649,-35 Z M 420,741 C 485,799 557,819 629,819 774,819 850,690 850,442 850,156 764,37 651,37 512,37 418,223 418,662 L 420,741 Z"
   id="glyph20017" />

   <glyph
   unicode="5"
   horiz-adv-x="1118"
   d="M 551,-35 C 901,-35 1155,133 1155,449 1155,754 942,913 596,913 498,913 408,903 319,877 L 348,1276 1102,1276 1102,1530 264,1530 215,809 276,768 C 348,791 416,803 494,803 684,803 805,670 805,434 805,174 680,37 492,37 446,37 416,41 383,53 L 354,256 C 342,377 293,422 209,422 152,422 98,391 76,330 92,107 264,-35 551,-35 Z"
   id="glyph20019" />

   <glyph
   unicode="4"
   horiz-adv-x="1169"
   d="M 682,-31 L 975,-31 975,346 1198,346 1198,559 975,559 975,1556 745,1556 68,518 68,346 682,346 682,-31 Z M 178,559 L 451,979 682,1337 682,559 178,559 Z"
   id="glyph20021" />

   <glyph
   unicode="3"
   horiz-adv-x="1093"
   d="M 580,-35 C 930,-35 1145,137 1145,387 1145,602 1030,758 707,807 991,864 1098,1014 1098,1202 1098,1413 944,1565 621,1565 371,1565 156,1460 150,1214 172,1176 213,1151 264,1151 336,1151 399,1186 418,1290 L 457,1489 C 481,1493 504,1495 524,1495 680,1495 772,1393 772,1190 772,946 651,836 471,836 L 401,836 401,756 481,756 C 690,756 801,627 801,385 801,156 684,37 473,37 444,37 420,39 397,45 L 365,246 C 346,383 295,424 213,424 160,424 107,395 84,330 102,100 268,-35 580,-35 Z"
   id="glyph20023" />

   <glyph
   unicode="2"
   horiz-adv-x="1067"
   d="M 121,0 L 1149,0 1149,252 287,252 C 383,336 477,414 543,467 924,766 1112,926 1112,1147 1112,1391 963,1565 639,1565 367,1565 129,1436 117,1192 139,1139 190,1104 250,1104 313,1104 381,1137 403,1276 L 444,1487 C 471,1493 498,1495 524,1495 682,1495 778,1376 778,1167 778,944 678,809 455,557 354,442 240,313 121,184 L 121,0 Z"
   id="glyph20025" />

   <glyph
   unicode="1"
   horiz-adv-x="839"
   d="M 98,0 L 889,-6 889,55 676,102 C 672,231 670,360 670,485 L 670,1200 678,1534 647,1554 94,1430 94,1356 334,1384 334,485 330,100 98,63 98,0 Z"
   id="glyph20027" />

   <glyph
   unicode="0"
   horiz-adv-x="1119"
   d="M 627,-35 C 909,-35 1167,209 1167,768 1167,1323 909,1565 627,1565 342,1565 88,1323 88,768 88,209 342,-35 627,-35 Z M 627,37 C 504,37 401,193 401,768 401,1339 504,1493 627,1493 748,1493 854,1337 854,768 854,195 748,37 627,37 Z"
   id="glyph20029" />

  </font>
</defs>
</svg>
